<?xml version="1.0" standalone="no"?>
<!DOCTYPE svg PUBLIC "-//W3C//DTD SVG 1.1//EN" "http://www.w3.org/Graphics/SVG/1.1/DTD/svg11.dtd" >
<svg xmlns="http://www.w3.org/2000/svg">
<metadata>
<json>
{
	"fontFamily": "themify",
	"majorVersion": 1,
	"minorVersion": 0,
	"version": "Version 1.0",
	"fontId": "themify",
	"psName": "themify",
	"subFamily": "Regular",
	"fullName": "themify",
	"description": "Font generated by IcoMoon."
}
</json>
</metadata>
<defs>
<font id="themify" horiz-adv-x="512">
<font-face units-per-em="512" ascent="480" descent="-32" />
<missing-glyph horiz-adv-x="512" />
<glyph unicode="&#x20;" d="" horiz-adv-x="256" />
<glyph unicode="&#xe600;" d="M421.647 419.764v60.236h-391.529v-512h391.529v60.236h60.236v391.529h-60.236zM60.236-1.882v451.764h60.236v-451.764h-60.236zM391.529-1.882h-240.941v451.764h240.941v-451.764zM451.764 58.353h-30.118v90.353h30.118v-90.353zM451.764 178.824h-30.118v90.353h30.118v-90.353zM421.647 299.294v90.353h30.118v-90.353h-30.118zM180.706 359.529h150.588v-30.117h-150.588v30.117zM180.706 299.294h120.47v-30.117h-120.471v30.117z" />
<glyph unicode="&#xe601;" d="M443.151 275.471c15.18 15.42 23.673 35.569 23.673 57.314 0 45.267-36.834 82.101-82.070 82.101-26.684 0-51.050-13.071-66.469-34.635-15.089 4.668-30.901 7.5-47.224 8.644v30.87h30.118v30.118h-90.353v-30.118h30.118v-30.87c-16.324-1.144-32.136-3.976-47.225-8.644-15.42 21.594-39.756 34.635-66.469 34.635-45.236 0-82.070-36.834-82.070-82.1 0-21.775 8.493-41.924 23.672-57.314-15.029-28.973-23.672-61.801-23.672-96.647 0-51.411 18.552-98.515 49.243-135.138l-38.701-51.591 24.094-18.070 35.9 47.887c37.316-33.401 86.377-53.911 140.288-53.911s102.972 20.51 140.288 53.911l35.9-47.887 24.094 18.070-38.701 51.591c30.69 36.623 49.243 83.727 49.243 135.138 0 34.846-8.644 67.674-23.673 96.647zM384.753 384.768c28.642 0 51.953-23.311 51.953-51.983 0-11.234-3.614-21.805-10.089-30.63-20.42 28.19-47.616 51.019-79.209 66.319 9.698 10.21 22.95 16.294 37.346 16.294zM75.294 332.785c0 28.642 23.311 51.983 51.953 51.983 14.396 0 27.648-6.084 37.346-16.264-31.594-15.3-58.76-38.159-79.21-66.319-6.475 8.825-10.090 19.365-10.090 30.599zM256-1.882c-99.659 0-180.706 81.046-180.706 180.706s81.047 180.706 180.706 180.706 180.706-81.047 180.706-180.706-81.046-180.706-180.706-180.706zM271.059 178.824h120.471v-30.118h-150.588v120.471h30.117v-90.353z" />
<glyph unicode="&#xe602;" d="M254.614 435.065l-248.23-436.947h499.38l-251.151 436.947zM254.765 374.347l198.927-346.112h-395.565l196.638 346.112zM271.059 150.573h-30.118v118.603h30.118v-118.603zM286.118 87.537c0-16.625-13.462-30.118-30.118-30.118s-30.118 13.493-30.118 30.118 13.463 30.118 30.118 30.118 30.118-13.493 30.118-30.118z" />
<glyph unicode="&#xe603;" d="M512 419.764v-30.118h-512v30.118h512zM45.176 299.294v-30.117h421.647v30.117h-421.647zM0 148.706h512v30.118h-512v-30.118zM105.412 28.236h301.176v30.118h-301.176v-30.118z" />
<glyph unicode="&#xe604;" d="M512 419.764v-30.118h-512v30.118h512zM0 269.177h512v30.117h-512v-30.117zM0 148.706h512v30.118h-512v-30.118zM0 28.236h512v30.118h-512v-30.118z" />
<glyph unicode="&#xe605;" d="M512 419.764v-30.118h-512v30.118h512zM421.647 299.294h-421.647v-30.117h421.647v30.117zM0 148.706h512v30.118h-512v-30.118zM0 28.236h301.176v30.118h-301.176v-30.118z" />
<glyph unicode="&#xe606;" d="M512 419.764v-30.118h-512v30.118h512zM90.353 269.177h421.647v30.117h-421.647v-30.117zM0 148.706h512v30.118h-512v-30.118zM210.823 28.236h301.177v30.118h-301.176v-30.118z" />
<glyph unicode="&#xe607;" d="M460.529 100.759l-47.284 94.178-94.178-47.224 13.493-26.955 56.35 28.281c-11.234-57.435-58.91-101.346-117.851-107.972v228.111h45.176v30.118h-45.176v31.654c34.334 6.988 60.236 37.376 60.236 73.758 0 41.532-33.792 75.294-75.294 75.294s-75.294-33.762-75.294-75.294c0-36.382 25.901-66.771 60.236-73.758v-31.654h-45.177v-30.118h45.177v-228.111c-58.88 6.626-106.556 50.477-117.82 107.821l56.019-28.13 13.493 26.956-94.178 47.224-47.285-94.178 26.925-13.523 19.606 39.093c20.871-67.614 83.938-116.916 158.298-116.916 74.21 0 137.216 49.092 158.178 116.465l19.426-38.641 26.925 13.523zM210.823 404.706c0 24.907 20.269 45.176 45.177 45.176s45.176-20.269 45.176-45.176-20.269-45.177-45.177-45.177-45.177 20.269-45.177 45.177z" />
<glyph unicode="&#xe608;" d="M114.718 308.45h282.594v-205.011c0-18.764-15.119-33.882-33.521-33.882h-23.161v-69.873c0-17.558-14.125-31.684-31.654-31.684-17.558 0-31.774 14.156-31.774 31.684v69.873h-42.406v-69.873c0-17.529-14.215-31.684-31.774-31.684-17.197 0-31.382 14.156-31.382 31.684l-0.271 69.873h-22.799c-18.733 0-33.852 15.089-33.852 33.882v205.011zM70.987 314.293c-17.529 0-31.714-14.186-31.714-31.383v-132.397c0-17.558 14.185-31.684 31.714-31.684s31.383 14.156 31.383 31.684v132.397c0 17.197-14.095 31.382-31.382 31.382zM398.216 319.533h-284.732c0 48.941 29.274 91.437 72.674 113.573l-21.895 40.298c-1.235 2.168-0.632 4.94 1.536 6.174 2.138 0.933 4.94 0.332 6.174-1.868l22.137-40.628c18.823 8.342 39.756 12.95 61.892 12.95s43.068-4.608 61.892-12.921l22.137 40.629c1.235 2.168 4.036 2.771 6.174 1.868 2.168-1.235 2.771-4.006 1.536-6.174l-21.895-40.298c43.129-22.166 72.373-64.662 72.373-113.604zM203.023 382.931c0 6.476-5.21 12.017-11.957 12.017-6.506 0-11.716-5.541-11.716-12.017 0-6.445 5.21-11.987 11.716-11.987 6.746-0.030 11.957 5.512 11.957 11.987zM332.649 382.931c0 6.476-5.211 12.017-11.716 12.017-6.776 0-11.957-5.541-11.957-12.017 0-6.445 5.211-11.987 11.957-11.987 6.505-0.030 11.716 5.512 11.716 11.987zM441.012 314.293c-17.257 0-31.382-13.854-31.382-31.383v-132.397c0-17.558 14.125-31.684 31.382-31.684 17.529 0 31.714 14.156 31.714 31.684v132.397c-0.030 17.529-14.185 31.382-31.714 31.382z" />
<glyph unicode="&#xe609;" d="M256 159.428l-206.427 206.427 21.293 21.293 185.133-185.103 185.103 185.103 21.293-21.293-206.396-206.426zM256 56.124l-185.103 185.133-21.323-21.293 206.427-206.427 206.427 206.427-21.293 21.293-185.133-185.133z" />
<glyph unicode="&#xe60a;" d="M240.549 224l185.103-185.103-21.293-21.293-206.396 206.396 206.427 206.427 21.293-21.293-185.133-185.133zM279.793 409.133l-21.293 21.293-206.427-206.426 206.427-206.427 21.293 21.293-185.103 185.133 185.103 185.133z" />
<glyph unicode="&#xe60b;" d="M290.454 224l-206.427-206.427-21.293 21.293 185.103 185.133-185.103 185.103 21.293 21.324 206.427-206.427zM229.918 430.426l-21.293-21.323 185.103-185.103-185.103-185.103 21.293-21.293 206.396 206.396-206.396 206.427z" />
<glyph unicode="&#xe60c;" d="M256 297.096l206.427-206.427-21.293-21.293-185.133 185.133-185.103-185.103-21.293 21.293 206.396 206.396zM256 400.369l185.103-185.103 21.293 21.293-206.396 206.427-206.427-206.427 21.323-21.293 185.103 185.103z" />
<glyph unicode="&#xe60d;" d="M492.544 327.153l-236.574-236.544-236.514 236.544 21.293 21.293 215.19-215.221 215.281 215.251 21.324-21.323z" />
<glyph unicode="&#xe60e;" d="M156.822 224.874l215.221-215.251-21.293-21.293-236.514 236.544 236.544 236.514 21.293-21.293-215.251-215.221z" />
<glyph unicode="&#xe60f;" d="M397.764 224.844l-236.544-236.544-21.293 21.293 215.22 215.22-215.22 215.281 21.293 21.293 236.544-236.544z" />
<glyph unicode="&#xe610;" d="M492.544 121.721l-21.293-21.293-215.251 215.221-215.22-215.221-21.293 21.293 236.514 236.514 236.544-236.514z" />
<glyph unicode="&#xe611;" d="M496.007 413.079h-58.036c-8.794 0-15.993-7.048-15.993-15.692v-20.089l-331.144-121.374v8.132c0 12.951-10.782 23.522-24.004 23.522h-42.828c-13.222 0-24.004-10.572-24.004-23.522v-141.192c0-12.921 10.782-23.522 24.004-23.522h42.828c13.192 0 24.004 10.601 24.004 23.522v9.969l31.142-5.692c-0.692-4.909-1.144-9.819-1.144-14.788 0-57.133 47.013-103.635 104.779-103.635 49.905 0 91.257 33.973 101.798 80.776l94.57-17.348v-19.848c0-8.644 7.198-15.692 15.993-15.692h58.036c8.795 0 15.993 7.048 15.993 15.692v345.088c0 8.644-7.198 15.692-15.993 15.692zM225.612 38.837c-41.171 0-74.662 32.979-74.662 73.517 0 3.132 0.813 6.174 1.204 9.276l145.769-26.745c-7.951-32.587-37.195-56.049-72.313-56.049zM481.882 66.726h-29.786v30.509l-391.379 71.77v-39.514h-30.599v128h30.599v-44.695l391.379 143.45v26.715h29.786v-316.236z" />
<glyph unicode="&#xe612;" d="M421.677 144.941c-14.125 20.3-21.203 43.37-21.203 68.608 0 23.371 6.776 44.635 19.998 63.699 7.379 10.752 19.065 22.769 35.087 36.292-10.451 12.951-21.263 23.402-32.015 30.78-19.094 13.221-40.9 19.998-65.536 19.998-15.089 0-32.918-3.704-53.218-10.451-20.329-7.077-35.087-10.481-44.002-10.481-7.108 0-21.263 3.072-42.496 9.246-21.534 6.144-39.394 9.216-54.453 9.216-35.418 0-64.332-14.788-87.371-44.303-23.070-29.846-34.756-68.005-34.756-115.079 0-50.447 15.39-101.828 45.207-154.774 30.449-52.916 60.928-79.692 92.612-79.692 10.149 0 23.703 3.373 40.629 10.481 16.655 6.747 31.382 10.149 43.7 10.149 12.62 0 28.281-3.072 46.442-9.849 18.492-6.445 32.618-9.849 43.099-9.849 26.142 0 52.615 20.028 79.089 60.325 17.829 26.774 30.148 52.615 37.828 76.921-18.131 5.512-34.454 18.432-48.64 38.762zM407.281 45.764c-19.788-30.118-38.942-46.743-53.911-46.743-4.428 0-13.824 1.416-32.557 7.951-20.872 7.8-40.057 11.746-56.983 11.746-16.293 0-34.786-4.156-55.356-12.499-17.468-7.319-26.052-8.101-28.943-8.101-18.914 0-42.526 22.95-66.379 64.362-27.799 49.363-41.322 95.142-41.322 139.987 0 40.237 9.337 71.891 28.371 96.557 17.438 22.317 37.677 32.708 63.639 32.708 12.077 0 27.166-2.65 46.050-8.041 31.654-9.186 43.49-10.421 50.868-10.421 12.8 0 30.419 3.976 53.519 12.017 17.74 5.903 32.437 8.915 43.671 8.915 18.341 0 34.183-4.788 48.49-14.728 1.988-1.386 4.066-2.952 6.144-4.668-6.867-7.108-12.469-13.884-16.926-20.389-16.866-24.275-25.389-51.471-25.389-80.896 0-31.563 8.945-60.416 26.624-85.836 10.661-15.209 22.528-27.347 35.599-36.322-6.536-15.029-14.998-30.298-25.209-45.598zM283.829 360.613c-7.077-2.168-17.529-4.005-31.985-5.24 0.632 30.449 8.613 56.923 24.004 79.059 15.39 22.197 41.201 37.255 76.95 45.568 0.603-2.771 1.204-4.94 1.506-6.776 0-2.139 0.332-3.976 0.332-6.144 0-12.62-3.072-26.774-8.915-41.863-6.144-15.39-15.692-29.546-28.642-42.466-11.084-11.053-22.166-18.432-33.25-22.137z" />
<glyph unicode="&#xe613;" d="M512 419.764h-512v-120.471h30.117v-331.294h451.764v331.294h30.118v120.471zM451.764-1.882h-391.529v301.176h391.529v-301.176zM481.882 329.412h-451.764v60.236h451.764v-60.236zM180.706 148.706h151.070c33.22 0 60.236 27.015 60.236 60.236s-27.015 60.236-60.236 60.236h-151.070c-33.22 0-60.236-27.016-60.236-60.236s27.016-60.236 60.236-60.236zM180.706 239.059h151.070c16.625 0 30.118-13.493 30.118-30.117s-13.493-30.118-30.118-30.118h-151.070c-16.625 0-30.118 13.493-30.118 30.118s13.493 30.118 30.118 30.118z" />
<glyph unicode="&#xe614;" d="M409.69 138.195l-21.263 21.324 49.514 49.423h-166.882v-166.882l49.423 49.514 21.324-21.263-85.805-85.986-85.805 85.986 21.323 21.263 49.423-49.514v166.882h-166.882l49.513-49.423-21.263-21.324-85.986 85.805 85.986 85.805 21.263-21.324-49.513-49.423h166.882v166.882l-49.423-49.514-21.323 21.263 85.805 85.986 85.805-85.986-21.324-21.263-49.423 49.514v-166.882h166.882l-49.514 49.423 21.263 21.324 85.986-85.805-85.986-85.805z" />
<glyph unicode="&#xe615;" d="M365.809 294.897l21.293-21.293-131.102-131.132-131.132 131.102 21.293 21.293 109.839-109.809 109.809 109.839zM512 224c0-141.161-114.839-256-256-256s-256 114.839-256 256 114.838 256 256 256 256-114.839 256-256zM481.882 224c0 124.567-101.316 225.882-225.882 225.882s-225.882-101.316-225.882-225.882 101.316-225.882 225.882-225.882 225.882 101.316 225.882 225.882z" />
<glyph unicode="&#xe616;" d="M326.897 333.809l-109.839-109.809 109.809-109.809-21.293-21.293-131.102 131.102 131.132 131.132 21.293-21.324zM512 224c0-141.161-114.839-256-256-256s-256 114.839-256 256 114.838 256 256 256 256-114.839 256-256zM481.882 224c0 124.567-101.316 225.882-225.882 225.882s-225.882-101.316-225.882-225.882 101.316-225.882 225.882-225.882 225.882 101.316 225.882 225.882z" />
<glyph unicode="&#xe617;" d="M206.427 355.132l131.102-131.132-131.132-131.132-21.293 21.293 109.839 109.839-109.839 109.809 21.323 21.324zM512 224c0-141.161-114.839-256-256-256s-256 114.839-256 256 114.838 256 256 256 256-114.839 256-256zM481.882 224c0 124.567-101.316 225.882-225.882 225.882s-225.882-101.316-225.882-225.882 101.316-225.882 225.882-225.882 225.882 101.316 225.882 225.882z" />
<glyph unicode="&#xe618;" d="M256 305.529l131.132-131.132-21.293-21.293-109.839 109.839-109.809-109.809-21.293 21.293 131.102 131.102zM512 224c0-141.161-114.839-256-256-256s-256 114.839-256 256 114.838 256 256 256 256-114.839 256-256zM481.882 224c0 124.567-101.316 225.882-225.882 225.882s-225.882-101.316-225.882-225.882 101.316-225.882 225.882-225.882 225.882 101.316 225.882 225.882z" />
<glyph unicode="&#xe619;" d="M477.485 213.339l-221.485-221.455-221.485 221.455 21.293 21.293 185.133-185.103v400.354h30.117v-400.354l185.103 185.103 21.324-21.293z" />
<glyph unicode="&#xe61a;" d="M481.882 209.784h-385.295l185.103-185.103-21.293-21.293-221.455 221.455 221.485 221.485 21.293-21.293-185.133-185.133h385.295v-30.118z" />
<glyph unicode="&#xe61b;" d="M473.058 224.844l-221.485-221.485-21.293 21.293 185.103 185.103h-385.265v30.118h385.295l-185.133 185.163 21.293 21.293 221.485-221.485z" />
<glyph unicode="&#xe61c;" d="M451.764 193.882v-165.647h-165.647v30.118h114.537l-310.302 310.302v-114.537h-30.117v165.647h165.647v-30.117h-113.935l309.7-309.7v113.935h30.118z" />
<glyph unicode="&#xe61d;" d="M503.447 224l-119.085-116.194-21.022 21.564 81.529 79.571h-377.736l81.558-79.571-21.022-21.564-119.115 116.194 119.085 116.194 21.022-21.564-81.528-79.571h377.765l-81.558 79.571 21.022 21.564 119.085-116.194z" />
<glyph unicode="&#xe61e;" d="M350.63 116.691l21.564-21.022-116.194-119.115-116.194 119.085 21.564 21.022 79.571-81.529v377.736l-79.571-81.558-21.564 21.052 116.194 119.085 116.194-119.085-21.564-21.022-79.571 81.529v-377.765l79.571 81.589z" />
<glyph unicode="&#xe61f;" d="M370.206 88.471l-310.724 310.122v-219.768h-30.117v271.149h271.812v-30.118h-220.34l310.663-310.061-21.293-21.324z" />
<glyph unicode="&#xe620;" d="M481.882 449.973v-271.149h-30.118v219.768l-310.724-310.121-21.293 21.324 310.663 310.061h-220.34v30.118h271.812z" />
<glyph unicode="&#xe621;" d="M456.162 213.339l-185.103 185.133v-400.354h-30.118v400.354l-185.103-185.133-21.323 21.323 221.485 221.455 221.485-221.485-21.324-21.293z" />
<glyph unicode="&#xe622;" d="M451.764 254.118c0-91.347-74.3-165.647-165.647-165.647h-87.702l79.692-79.692-21.293-21.293-116.043 116.043 116.074 116.073 21.293-21.293-79.721-79.721h87.702c74.722 0 135.529 60.808 135.529 135.53s-60.808 135.53-135.529 135.53h-213.323v30.118h213.323c91.347 0 165.647-74.3 165.647-165.647z" />
<glyph unicode="&#xe623;" d="M439.205 28.236v-30.118h-213.323c-91.316 0-165.647 74.3-165.647 165.647s74.331 165.647 165.647 165.647h87.703l-79.692 79.692 21.293 21.293 116.043-116.044-116.043-116.073-21.293 21.324 79.692 79.692h-87.702c-74.722 0-135.53-60.808-135.53-135.53s60.808-135.529 135.53-135.529h213.324z" />
<glyph unicode="&#xe624;" d="M391.529 359.529v72.101c0 26.654-22.197 48.369-49.483 48.369h-171.641c-27.256 0-49.453-21.715-49.453-48.369v-72.101h-90.835v-391.529h451.764v391.529h-90.353zM151.070 431.631c0 10.060 8.674 18.252 19.335 18.252h171.641c10.692 0 19.365-8.192 19.365-18.252v-72.101h-210.341v72.101zM451.764-1.882h-391.529v240.941h391.529v-240.941zM451.764 269.177h-391.529v60.236h60.717v-19.365h30.117v19.365h210.341v-19.365h30.118v19.365h60.236v-60.236z" />
<glyph unicode="&#xe625;" d="M512-1.882v-30.118h-512v30.118h512zM60.236 178.824h60.236v-150.588h30.118v180.706h-120.471v-180.706h30.117v150.588zM210.823 269.177h60.235v-240.941h30.118v271.059h-120.471v-271.059h30.118v240.941zM361.412 389.647h60.236v-361.412h30.118v391.529h-120.471v-391.529h30.118v361.412z" />
<glyph unicode="&#xe626;" d="M512-1.882v-30.118h-512v30.118h512zM361.412 178.824h60.236v-150.588h30.118v180.706h-120.471v-180.706h30.118v150.588zM210.823 269.177h60.235v-240.941h30.118v271.059h-120.471v-271.059h30.118v240.941zM60.236 389.647h60.236v-361.412h30.118v391.529h-120.471v-391.529h30.117v361.412z" />
<glyph unicode="&#xe627;" d="M256.482 480c-141.161 0-256-114.839-256-256s114.838-256 256-256 256 114.839 256 256-114.868 256-256 256zM391.198 239.059c2.952 43.972 18.522 85.986 45.086 121.073 25.901-34.123 42.285-75.746 45.297-121.073h-90.383zM481.581 208.941c-3.012-45.327-19.396-86.98-45.327-121.103-26.534 35.117-42.105 77.132-45.026 121.103h90.353zM416.406 383.353c-32.949-41.291-52.194-91.558-55.326-144.293h-90.022v210.101c56.591-3.675 107.64-27.979 145.348-65.807zM240.941 449.099v-210.040h-89.148c-3.072 52.766-22.317 103.003-55.236 144.293 37.466 37.617 88.154 61.892 144.384 65.747zM31.352 239.059c3.012 45.327 19.396 86.98 45.327 121.103 26.534-35.087 42.075-77.101 45.026-121.103h-90.353zM121.675 208.941c-2.921-44.032-18.432-86.016-44.996-121.103-25.931 34.123-42.316 75.776-45.327 121.103h90.323zM96.527 64.647c32.979 41.291 52.194 91.527 55.266 144.293h89.148v-210.041c-56.23 3.855-106.917 28.13-144.414 65.747zM271.059-1.159v210.101h90.052c3.102-52.736 22.348-103.002 55.266-144.324-37.707-37.798-88.726-62.103-145.317-65.777z" />
<glyph unicode="&#xe628;" d="M461.161 54.588c-0.421 0.392-39.514 38.972-39.514 96.678v99.147c0 93.395-74.33 169.351-165.647 169.351s-165.647-75.957-165.647-169.351v-99.147c0-56.049-39.334-96.467-39.695-96.858l-25.389-25.69h462.517l-26.624 25.871zM91.919 58.835c13.372 20.841 28.552 53.127 28.552 92.431v99.147c0 76.77 60.807 139.234 135.529 139.234s135.529-62.464 135.529-139.234v-99.147c0-39.755 14.908-71.77 28.25-92.431h-327.861zM271.059 419.764h-30.118v30.118h30.118v-30.118zM271.059 28.236h30.118c0-24.908-20.269-45.176-45.176-45.176s-45.177 20.269-45.177 45.176h30.118c0-8.313 6.776-15.059 15.059-15.059s15.059 6.747 15.059 15.059z" />
<glyph unicode="&#xe629;" d="M271.059 419.764v60.236h-30.118v-60.236h-210.823v-301.176h451.764v301.176h-210.823zM451.764 148.706h-391.529v240.941h391.529v-240.941zM105.412 88.471h301.176v-30.118h-77.824l45.297-70.053-25.299-16.354-55.868 86.408h-21.836v-90.353h-30.118v90.353h-21.444l-56.29-86.438-25.238 16.414 45.598 70.024h-78.156v30.118z" />
<glyph unicode="&#xe62a;" d="M431.074 419.404h-215.401l-70.204-211.245h50.176l-60.536-182.272 285.606 242.477h-87.462l97.822 151.040zM338.733 238.245l-141.161-119.838 39.815 119.838h-50.146l50.146 151.040h138.3l-97.822-151.040h60.868z" />
<glyph unicode="&#xe62b;" d="M356.292 239.059l-115.23-217.841-26.624 14.065 91.859 173.659h-153.871l147.576 219.226 24.967-16.836-115.983-172.273h147.305z" />
<glyph unicode="&#xe62c;" d="M499.712 445.305c-1.596 0.301-39.786 7.349-89.781 7.349-63.397 0-115.291-11.023-154.353-32.768-45.719 23.040-98.304 34.696-156.492 34.696-50.628 0-86.317-9.096-87.793-9.487l-11.294-2.952 0.030-418.816 18.794 4.849c0.331 0.060 33.732 8.524 80.263 8.524 43.58 0 83.456-7.228 119.266-21.173v-24.938h75.294v25.781c38.581 14.697 82.733 18.402 116.254 18.402 47.044 0 83.908-6.776 84.269-6.837l17.829-3.313v418.364l-12.288 2.319zM30.117 61.154v357.135c13.583 2.53 38.46 6.174 68.969 6.174 53.037 0 100.563-10.842 141.854-31.443v-354.666c-42.255 18.582-89.66 28.461-141.854 28.461-29.184 0-53.398-3.042-68.969-5.662zM481.882 60.22c-16.143 2.108-41.954 4.638-71.981 4.638-55.657 0-101.828-8.975-138.843-25.75v354.575c42.827 23.492 98.515 28.853 138.842 28.853 30.81 0 57.284-2.922 71.981-4.94v-357.376z" />
<glyph unicode="&#xe62d;" d="M107.279 449.882v-465.589l141.131 98.485 143.119-98.183v465.288h-284.25zM361.412 41.758l-113.122 77.644-110.863-77.342v377.705h223.985v-378.007z" />
<glyph unicode="&#xe62e;" d="M301.99 176.595v303.405h-182.332v-303.495l90.986 61.832 91.347-61.741zM149.775 233.397v216.486h122.127v-216.576l-61.35 41.442-60.778-41.352zM481.882 449.671v-451.554h-451.764v451.554h59.452v-30.118h-29.334v-391.318h391.529v391.318h-120.621v30.118h150.739z" />
<glyph unicode="&#xe62f;" d="M210.823 88.471v45.176h30.118v-15.059h30.117v15.059h30.118v-45.176h-90.353zM512 148.706h-30.118v-180.706h-451.764v180.706h-30.117v240.941h108.906c28.25 55.115 84.48 90.353 147.094 90.353s118.875-35.268 147.095-90.353h108.905v-240.941zM143.631 389.647h224.798c-24.847 37.135-66.56 60.236-112.399 60.236s-87.552-23.13-112.399-60.236zM451.764 148.706h-391.529v-150.588h391.529v150.588zM481.882 359.529h-451.764v-180.706h451.764v180.706z" />
<glyph unicode="&#xe630;" d="M479.262 426.331l-195.764-286.118-24.847 16.986 195.764 286.118 24.847-16.986zM271.059 58.594c0-33.22-27.016-60.236-60.236-60.236-6.114 0-16.203-0.452-16.293-0.452h-164.262l137.125 103.334c4.518 3.132 25.871 17.589 43.429 17.589 33.22 0 60.235-27.015 60.235-60.236zM240.941 58.594c0 16.595-13.523 30.118-30.118 30.118-5.27 0-17.529-6.114-25.691-11.836l-64.844-48.881h73.276c1.898 0.091 11.324 0.482 17.257 0.482 16.595 0 30.118 13.523 30.118 30.118z" />
<glyph unicode="&#xe631;" d="M512 253.184c0 24.907-20.269 45.177-45.176 45.177h-144.805l8.584 27.528 0.692 108.935c0 24.907-20.269 45.176-45.176 45.176h-60.236c-24.907 0-45.177-20.269-45.177-45.176v-103.966l9.337-32.527h-144.866c-24.907 0-45.176-20.269-45.176-45.177v-104.99h28.070l-23.070-180.164h502.001l-23.070 180.164h28.070v105.020zM472.787-1.882h-51.14v60.236h-30.118v-60.236h-30.118v90.353h-30.118v-90.353h-30.118v120.471h-30.118v-120.471h-150.588v60.236h-30.118v-60.236h-51.14l19.215 150.046h395.144l19.215-150.046zM31.924 178.281h-1.807v74.903c0 8.312 6.746 15.059 15.059 15.059h185.675l-20.028 64.904v101.677c0 8.313 6.746 15.059 15.059 15.059h60.236c8.313 0 15.059-6.746 15.059-15.059v-102.189l-20.089-64.392h185.736c8.313 0 15.059-6.747 15.059-15.059v-74.872h-449.957zM240.941 419.764h30.117v-30.118h-30.118v30.118z" />
<glyph unicode="&#xe632;" d="M421.647 419.764v30.118h-90.353v-30.118h-150.588v30.118h-90.353v-30.118h-90.353v-451.764h512v451.764h-90.353zM361.412 419.764h30.118v-60.236h-30.118v60.236zM120.471 419.764h30.117v-60.236h-30.118v60.236zM481.882-1.882h-451.764v268.68h451.764v-268.68zM30.117 296.915v92.732h60.236v-60.236h90.353v60.236h150.588v-60.236h90.353v60.236h60.236v-92.732h-451.764z" />
<glyph unicode="&#xe633;" d="M179.441 389.647v30.118h-87.823v-30.118h-91.618v-361.412h512v361.412h-332.559zM481.882 58.353h-451.764v210.824h197.482c-10.391-17.8-16.775-38.22-16.775-60.236 0-66.44 54.031-120.471 120.471-120.471s120.471 54.031 120.471 120.471c0 22.016-6.385 42.436-16.776 60.236h46.893v-210.823zM421.647 208.941c0-49.815-40.538-90.353-90.353-90.353s-90.353 40.538-90.353 90.353 40.538 90.353 90.353 90.353 90.353-40.538 90.353-90.353zM410.142 299.294c-21.203 18.492-48.55 30.118-78.848 30.118s-57.645-11.625-78.848-30.118h-222.328v60.236h451.764v-60.236h-71.74z" />
<glyph unicode="&#xe634;" d="M512 179.305l-58.971-0.060-61.772 120.049h-239.405l-89.389-120.44-62.464-0.030v-149.896h60.295c0-0.241-0.060-0.452-0.060-0.692 0-33.22 27.015-60.236 60.235-60.236s60.236 27.015 60.236 60.236c0 0.241-0.060 0.452-0.060 0.692h150.739c-0.030-0.241-0.091-0.452-0.091-0.692 0-33.22 27.015-60.236 60.236-60.236s60.236 27.015 60.236 60.236c0 0.241-0.060 0.452-0.060 0.692h60.296v150.377zM419.178 179.215l-117.368-0.12v90.082h71.077l46.291-89.962zM166.972 269.177h104.719v-90.112l-171.701-0.151 66.982 90.262zM120.471-1.882c-16.595 0-30.117 13.523-30.117 30.118s13.523 30.118 30.118 30.118 30.118-13.523 30.118-30.118-13.523-30.118-30.118-30.118zM391.529-1.882c-16.595 0-30.118 13.523-30.118 30.118s13.523 30.118 30.118 30.118 30.118-13.523 30.118-30.118-13.523-30.118-30.118-30.118zM481.882 59.046h-38.882c-10.541 17.529-29.546 29.425-51.471 29.425s-40.93-11.897-51.471-29.425h-168.117c-10.541 17.529-29.546 29.425-51.471 29.425s-40.93-11.897-51.471-29.425h-38.882v89.66l451.764 0.452v-90.112z" />
<glyph unicode="&#xe635;" d="M464.354 426.572l-266.029-406.137-148.119 132.096 20.058 22.468 122.007-108.845 246.905 376.923 25.178-16.505z" />
<glyph unicode="&#xe636;" d="M421.647 306.492h30.118v-308.375h-421.647v421.647h252.777v-30.118h-222.66v-361.412h361.412v278.257zM146.191 234.661l-21.323-21.324 103.424-103.424 228.502 346.714-25.148 16.595-208.173-315.874-77.282 77.312z" />
<glyph unicode="&#xe637;" d="M362.044 352.482v-255.94h-30.118v255.94c0 32.858-24.064 68.247-76.921 68.247-58.459 0-74.060-42.888-74.060-68.247v-244.585h0.211v-43.882c0-18.673 20.871-36.322 42.948-36.322 25.419 0 47.194 20.57 47.194 37.376v8.132h-0.091l0.241 229.406c0 26.323-7.439 26.323-14.035 26.323-11.113 0-16.475-1.054-16.475-24.787v-154.986h-30.118v154.986c0 13.583 0 54.904 46.592 54.904 20.149 0 44.152-9.788 44.152-56.471l-0.211-193.656h0.060v-43.882c0-35.328-36.864-67.493-77.312-67.493-38.912 0-73.065 31.051-73.065 66.44v2.228h-0.211v286.268c0 47.375 32.588 98.364 104.177 98.364 70.264-0.030 107.038-49.483 107.038-98.364z" />
<glyph unicode="&#xe638;" d="M481.882 419.764v-451.764h-451.764v451.764h67.584v-30.118h-37.467v-391.529h391.529v391.529h-38.49v30.118h68.608zM391.529 329.412h-271.059v120.47h92.913c6.234 17.529 22.98 30.118 42.617 30.118s36.382-12.589 42.617-30.118h92.913v-120.47zM361.412 419.764h-90.353v15.059c0 8.313-6.747 15.059-15.059 15.059s-15.059-6.747-15.059-15.059v-15.059h-90.353v-60.236h210.823v60.236z" />
<glyph unicode="&#xe639;" d="M277.293 224l200.162-200.162-21.293-21.293-200.162 200.162-200.162-200.162-21.293 21.293 200.162 200.162-200.192 200.162 21.293 21.293 200.192-200.162 200.162 200.162 21.293-21.293-200.162-200.162z" />
<glyph unicode="&#xe63a;" d="M384 344.471c-17.408 0-34.515-3.705-50.929-11.053-26.774 26.292-62.494 41.171-99.659 41.171-59.212 0-110.954-35.84-132.428-90.413-54.302 2.228-100.984-42.797-100.984-97.822 0-53.971 43.911-97.882 97.882-97.882h286.117c70.565 0 128 57.435 128 128s-57.435 128-128 128zM384 118.588h-286.118c-37.376 0-67.764 30.389-67.764 67.764s30.389 67.764 67.764 67.764c3.764 0 7.349-0.572 10.933-1.144l13.101-2.168 3.795 12.709c14.396 48.429 57.676 80.956 107.7 80.956 32.316 0 63.308-14.366 84.962-39.364l7.981-9.216 10.661 5.873c15.149 8.342 30.931 12.589 46.983 12.589 53.971 0 97.882-43.911 97.882-97.882s-43.911-97.882-97.882-97.882z" />
<glyph unicode="&#xe63b;" d="M512 276.706c0-70.566-57.404-128-128-128h-83.034v30.118h83.034c53.971 0 97.882 43.911 97.882 97.882s-43.911 97.882-97.882 97.882c-16.022 0-31.834-4.247-46.983-12.559l-10.661-5.873-7.981 9.216c-21.654 24.968-52.645 39.334-84.962 39.334-50.025 0-93.334-32.527-107.701-80.956l-3.795-12.709-13.101 2.168c-3.584 0.572-7.168 1.144-10.933 1.144-37.346 0-67.764-30.388-67.764-67.764s30.419-67.764 67.764-67.764h111.405v-30.118h-111.405c-53.971 0-97.882 43.911-97.882 97.882 0 54.995 45.508 100.442 100.984 97.822 21.474 54.573 73.216 90.413 132.428 90.413 37.165 0 72.885-14.878 99.659-41.171 16.444 7.348 33.521 11.053 50.929 11.053 70.596 0 128-57.435 128-128zM271.059 66.485v232.81h-30.118v-232.81l-49.573 49.574-21.293-21.293 85.925-85.925 85.956 85.956-21.293 21.293-49.604-49.604z" />
<glyph unicode="&#xe63c;" d="M512 276.706c0-70.566-57.404-128-128-128h-83.034v30.118h83.034c53.971 0 97.882 43.911 97.882 97.882s-43.911 97.882-97.882 97.882c-16.022 0-31.834-4.247-46.983-12.559l-10.661-5.873-7.981 9.216c-21.654 24.968-52.645 39.334-84.962 39.334-50.025 0-93.334-32.527-107.701-80.956l-3.795-12.709-13.101 2.168c-3.584 0.572-7.168 1.144-10.933 1.144-37.346 0-67.764-30.388-67.764-67.764s30.419-67.764 67.764-67.764h111.405v-30.118h-111.405c-53.971 0-97.882 43.911-97.882 97.882 0 54.995 46.050 100.442 100.984 97.822 21.474 54.573 73.216 90.413 132.428 90.413 37.165 0 72.885-14.878 99.659-41.171 16.444 7.348 33.521 11.053 50.929 11.053 70.596 0 128-57.435 128-128zM320.632 213.339l21.293 21.293-85.925 85.956-85.956-85.925 21.293-21.293 49.604 49.573v-234.707h30.118v234.707l49.574-49.604z" />
<glyph unicode="&#xe63d;" d="M466.824 480h-421.647c-24.907 0-45.176-20.269-45.176-45.176v-301.176c0-24.908 20.269-45.176 45.176-45.176h15.059v-123.542l141.191 123.543h265.397c24.907 0 45.176 20.269 45.176 45.176v301.176c0 24.908-20.269 45.176-45.176 45.176zM481.882 133.647c0-8.283-6.747-15.059-15.059-15.059h-276.721l-99.749-87.281v87.281h-45.176c-8.313 0-15.059 6.776-15.059 15.059v301.176c0 8.283 6.746 15.059 15.059 15.059h421.647c8.313 0 15.059-6.776 15.059-15.059v-301.176z" />
<glyph unicode="&#xe63e;" d="M466.824 480h-421.647c-24.907 0-45.176-20.269-45.176-45.176v-301.176c0-24.908 20.269-45.176 45.176-45.176h15.059v-123.542l141.191 123.543h265.397c24.907 0 45.176 20.269 45.176 45.176v301.176c0 24.908-20.269 45.176-45.176 45.176zM481.882 133.647c0-8.283-6.747-15.059-15.059-15.059h-276.721l-99.749-87.281v87.281h-45.176c-8.313 0-15.059 6.776-15.059 15.059v301.176c0 8.283 6.746 15.059 15.059 15.059h421.647c8.313 0 15.059-6.776 15.059-15.059v-301.176zM90.353 389.647h331.294v-30.118h-331.294v30.118zM90.353 329.412h331.294v-30.118h-331.294v30.118zM90.353 269.177h180.706v-30.118h-180.706v30.118z" />
<glyph unicode="&#xe63f;" d="M512 434.824v-240.007c0-24.908-20.269-45.176-45.176-45.176h-15.3v30.118h15.3c8.313 0 15.059 6.776 15.059 15.059v240.007c0 8.283-6.747 15.059-15.059 15.059h-421.647c-8.313 0-15.059-6.776-15.059-15.059v-240.007c0-8.283 6.746-15.059 15.059-15.059h45.177v-87.1l53.579 47.255 19.908-22.588-103.605-91.407v123.724h-15.059c-24.907 0-45.176 20.269-45.176 45.176v240.007c0 24.907 20.269 45.176 45.176 45.176h421.647c24.907 0 45.176-20.269 45.176-45.176zM422.25 192.678v-91.648c0-24.908-20.269-45.176-45.176-45.176h-15.059v-92.281l-110.442 92.281h-25.69c-24.907 0-45.177 20.269-45.177 45.176v91.648c0 24.908 20.269 45.177 45.177 45.177h151.19c24.908 0 45.176-20.269 45.176-45.177zM392.132 192.678c0 8.283-6.747 15.059-15.059 15.059h-151.19c-8.313 0-15.059-6.776-15.059-15.059v-91.648c0-8.283 6.746-15.059 15.059-15.059h36.653l69.361-58.007v58.007h45.176c8.313 0 15.059 6.776 15.059 15.059v91.648z" />
<glyph unicode="&#xe640;" d="M391.529 239.059h30.118c0-74.722-60.808-135.53-135.53-135.53s-135.53 60.808-135.53 135.53h30.118c0-58.127 47.285-105.412 105.412-105.412s105.412 47.284 105.412 105.412zM225.882 284.236c16.655 0 30.118 13.462 30.118 30.118s-13.463 30.118-30.118 30.118-30.118-13.462-30.118-30.118 13.463-30.118 30.118-30.118zM346.353 284.236c16.655 0 30.118 13.462 30.118 30.118s-13.462 30.118-30.118 30.118-30.118-13.462-30.118-30.118 13.462-30.118 30.118-30.118zM512 254.118c0-124.567-101.316-225.882-225.882-225.882-40.358 0-79.751 10.812-114.537 31.353l-165.647-85.625 85.624 165.617c-20.51 34.786-31.323 74.18-31.323 114.537 0 124.566 101.316 225.882 225.882 225.882s225.882-101.316 225.882-225.882zM481.882 254.118c0 107.942-87.823 195.764-195.764 195.764s-195.764-87.823-195.764-195.764c0-37.466 10.782-74.060 31.202-105.743l4.728-7.318-50.116-96.918 96.888 50.116 7.319-4.728c31.714-20.389 68.246-31.172 105.743-31.172 107.942 0 195.764 87.823 195.764 195.764z" />
<glyph unicode="&#xe641;" d="M202.361 224.783l219.286-183.628v365.478l-219.286-181.851zM391.529 105.668l-142.125 118.995 142.125 117.88v-236.875zM98.816 224.662l166.852-139.716-19.365-23.13-194.56 162.936 194.62 161.371 19.245-23.191-166.792-138.27z" />
<glyph unicode="&#xe642;" d="M255.217 398.11l-181.851-219.286h365.478l-183.627 219.286zM255.338 351.067l118.995-142.125h-236.875l117.88 142.125zM451.764 88.471v-30.118h-391.529v30.118h391.529z" />
<glyph unicode="&#xe643;" d="M90.353 406.634v-365.508l219.286 183.657-219.286 181.851zM120.471 342.543l142.125-117.851-142.125-119.025v236.875zM460.228 224.783l-194.56-162.936-19.365 23.13 166.852 139.716-166.762 138.3 19.245 23.19 194.59-161.4z" />
<glyph unicode="&#xe644;" d="M90.353 28.236h120.471v391.529h-120.471v-391.529zM120.471 389.647h60.236v-331.294h-60.236v331.294zM301.176 419.764v-391.529h120.471v391.529h-120.471zM391.529 58.353h-60.236v331.294h60.236v-331.294z" />
<glyph unicode="&#xe645;" d="M90.353 398.923v-349.907l349.907 175.797-349.907 174.11zM120.471 350.253l252.446-125.591-252.446-126.825v252.416z" />
<glyph unicode="&#xe646;" d="M256 404.706c-99.659 0-180.706-81.047-180.706-180.706s81.047-180.706 180.706-180.706 180.706 81.046 180.706 180.706-81.046 180.706-180.706 180.706zM256 73.412c-83.034 0-150.588 67.554-150.588 150.588s67.554 150.588 150.588 150.588 150.588-67.554 150.588-150.588-67.554-150.588-150.588-150.588z" />
<glyph unicode="&#xe647;" d="M269.252 273.062l32.557 40.357-0.12 0.091c25.75 29.244 62.856 46.020 101.738 46.020h57.163l-49.574 49.573 21.293 21.293 85.925-85.925-85.956-85.956-21.293 21.293 49.604 49.604h-57.163c-29.786 0-58.157-12.8-78.156-34.906l-32.527-40.327-23.492 18.884zM176.219 157.861l-0.332 0.241c-20.089-25.088-50.085-39.514-82.311-39.514h-93.576v-30.118h93.576c41.231 0 79.661 18.402 105.502 50.477l0.332-0.271 28.34 35.117-23.401 18.944-28.13-34.876zM410.986 168.162l49.604-49.574h-57.163c-31.684 0-61.169 14.125-81.317 38.581l-128.572 158.57-0.301-0.241c-25.6 27.889-61.681 44.032-99.659 44.032h-93.576v-30.118h93.576c30.058 0 58.669-12.891 78.637-35.238l125.32-154.564-0.151-0.12c25.901-32.406 64.542-51.019 106.014-51.019h57.163l-49.574-49.574 21.293-21.293 85.956 85.956-85.956 85.956-21.293-21.353z" />
<glyph unicode="&#xe648;" d="M202.361 223.217l219.286-181.851v365.478l-219.286-183.627zM391.529 105.457l-142.125 117.88 142.125 118.995v-236.875zM90.353 419.764h30.117v-391.529h-30.118v391.529z" />
<glyph unicode="&#xe649;" d="M90.353 41.156l219.286 183.627-219.286 181.851v-365.478zM120.471 342.543l142.125-117.88-142.125-118.995v236.875zM421.647 419.764v-391.529h-30.118v391.529h30.118z" />
<glyph unicode="&#xe64a;" d="M90.353 389.647v-331.294h331.294v331.294h-331.294zM391.529 88.471h-271.059v271.059h271.059v-271.059z" />
<glyph unicode="&#xe64b;" d="M466.824 419.764h-421.647c-24.907 0-45.176-20.269-45.176-45.177v-301.176c0-24.908 20.269-45.176 45.176-45.176h421.647c24.907 0 45.176 20.269 45.176 45.176v301.176c0 24.907-20.269 45.176-45.176 45.176zM481.882 73.412c0-8.283-6.747-15.059-15.059-15.059h-421.647c-8.313 0-15.059 6.776-15.059 15.059v165.647h451.764v-165.647zM30.117 329.412v45.176c0 8.282 6.746 15.059 15.059 15.059h421.647c8.313 0 15.059-6.777 15.059-15.059v-45.176h-451.764z" />
<glyph unicode="&#xe64c;" d="M380.265 276.917l-122.971 200.975-126.826-201.036-135.5 115.441 52.374-394.18h417.28l52.345 393.788-136.704-114.989zM73.698 28.236l-4.005 30.118h372.586l-4.005-30.118h-364.574zM446.284 88.471h-380.567l-30.57 230.009 102.279-87.1 119.476 189.44 115.983-189.5 104.026 87.522-30.63-230.37z" />
<glyph unicode="&#xe64d;" d="M496.941 442.052l-72.493-363.339-219.166-72.764-190.223 72.764 19.365 97.069h80.956l-7.921-40.057 114.989-43.882 132.457 43.882 18.492 92.401h-329.156l15.782 80.896h329.487l10.39 52.103h-329.216l16.052 80.926h410.202z" />
<glyph unicode="&#xe64e;" d="M511.97 449.882h-67.976c0.030 5.060 0.241 9.879 0.241 15.059v15.059h-376.471v-15.059c0-4.819 0.121-10.029 0.15-15.059h-67.885l-0.030-15.029c-0.090-32.708 1.867-66.228 5.873-99.69 10.601-88.455 38.279-190.976 84.179-213.444 5.843-2.892 11.897-4.337 17.95-4.337 7.168 0 14.427 2.048 21.293 6.204l6.294 4.216c25.088-38.46 59.332-64.421 105.351-69.21v-60.476h-88.938v-30.118h210.824v30.118h-91.769v60.145c42.616 4.488 77.854 28.16 105.201 69.632l7.048-4.668c6.505-3.916 13.462-5.843 20.51-5.843 6.053 0 12.168 1.445 18.131 4.367 45.899 22.468 73.577 124.988 84.179 213.444 4.005 33.43 5.963 66.981 5.873 99.689l-0.030 14.999zM120.109 153.705l-6.897-4.638c-3.373-1.988-6.144-2.108-9.879-0.301-23.642 11.596-54.453 80.565-67.554 190.012-3.252 27.106-5.090 54.272-5.541 80.986h38.34c2.921-88.064 15.451-194.801 53.971-269.733l-2.439 3.675zM256 87.236c-136.734 0-156.582 242.447-158.028 362.647h316.055c-1.476-142.185-25.238-362.647-158.028-362.647zM476.22 338.779c-13.132-109.447-43.911-178.417-67.554-190.012-3.704-1.837-6.505-1.747-9.276-0.091l-7.529 5.029-3.493-5.24c32.497 61.38 51.411 152.576 55.145 271.3h38.279c-0.482-26.714-2.319-53.88-5.572-80.986z" />
<glyph unicode="&#xe64f;" d="M391.529 148.706c-16.414 0-31.594-4.728-44.875-12.409l-69.933 73.909 188.536 199.198-21.896 20.721-187.362-197.993-187.422 197.993-21.865-20.721 188.536-199.198-69.933-73.879c-13.252 7.65-28.461 12.378-44.845 12.378-49.815 0-90.353-40.538-90.353-90.353s40.538-90.353 90.353-90.353 90.353 40.538 90.353 90.353c0 22.498-8.584 42.887-22.227 58.7l67.403 71.228 67.404-71.228c-13.673-15.842-22.227-36.202-22.227-58.7 0-49.815 40.538-90.353 90.353-90.353s90.353 40.538 90.353 90.353-40.538 90.353-90.353 90.353zM120.471-1.882c-33.22 0-60.236 27.015-60.236 60.236s27.016 60.236 60.236 60.236 60.236-27.015 60.236-60.236-27.016-60.236-60.236-60.236zM391.529-1.882c-33.22 0-60.236 27.015-60.236 60.236s27.015 60.236 60.236 60.236 60.236-27.015 60.236-60.236-27.015-60.236-60.236-60.236z" />
<glyph unicode="&#xe650;" d="M512 133.647v-15.059h-185.765v30.118h155.166c-3.373 50.959-23.763 97.31-55.476 133.541l-24.275-24.275-21.293 21.293 24.154 24.154c-36.202 31.714-82.522 51.983-133.452 55.387v-89.63h-30.118v89.63c-50.929-3.404-97.25-23.673-133.421-55.387l23.974-23.974-21.293-21.293-24.094 24.094c-31.714-36.231-52.133-82.582-55.477-133.542h155.738v-30.118h-186.368v15.059c0 141.161 114.838 256 256 256s256-114.839 256-256zM316.236 133.647c0-33.22-27.015-60.236-60.236-60.236s-60.236 27.015-60.236 60.236c0 19.396 9.367 36.442 23.612 47.495l-62.705 109.327 26.112 14.969 64.482-112.429c2.861 0.421 5.722 0.873 8.734 0.873 33.22 0 60.236-27.015 60.236-60.236zM286.118 133.647c0 16.595-13.523 30.118-30.118 30.118s-30.118-13.523-30.118-30.118 13.523-30.118 30.118-30.118 30.118 13.523 30.118 30.118z" />
<glyph unicode="&#xe651;" d="M60.236 148.706h391.529v240.941h-391.529v-240.941zM90.353 359.529h331.294v-180.706h-331.294v180.706zM466.824 449.882h-421.647c-24.907 0-45.176-19.215-45.176-42.858v-305.814c0-23.642 20.269-42.858 45.176-42.858h421.647c24.907 0 45.176 19.215 45.176 42.858v305.815c0 23.642-20.269 42.858-45.176 42.858zM481.882 101.211c0-7.048-6.776-12.74-15.059-12.74h-421.647c-8.282 0-15.059 5.692-15.059 12.74v305.815c0 7.048 6.776 12.74 15.059 12.74h421.647c8.283 0 15.059-5.692 15.059-12.74v-305.815zM150.588 28.236h210.823v-30.118h-210.823v30.118z" />
<glyph unicode="&#xe652;" d="M501.188 317.094l-84.661 102.671h-145.468v60.236h-30.118v-60.236h-210.823v-210.823h210.823v-240.941h30.118v240.941h145.709l84.42 108.153zM271.059 239.059h-210.823v150.588h342.076l60.265-73.065-60.507-77.523h-131.012z" />
<glyph unicode="&#xe653;" d="M271.059 299.294h141.402l58.368 77.192-58.609 73.397h-141.161v30.118h-30.118v-30.118h-180.706v-150.588h180.706v-60.236h-141.161l-58.609-73.397 58.368-77.192h141.402v-120.471h30.118v120.471h180.706v150.588h-180.706v60.235zM90.353 419.764h307.38l34.966-43.791-35.207-46.562h-307.14v90.353zM421.647 118.588h-307.14l-35.208 46.562 34.966 43.791h307.38v-90.353z" />
<glyph unicode="&#xe654;" d="M512-1.882v-30.118h-512v30.118h512zM402.191 213.339l-21.293 21.293-109.809-109.809v355.178h-30.118v-355.207l-109.839 109.869-21.323-21.323 146.191-146.161 146.191 146.161z" />
<glyph unicode="&#xe655;" d="M256 480c-141.372 0-256-114.628-256-256s114.628-256 256-256 256 114.628 256 256-114.628 256-256 256zM481.702 220.356c-62.494 13.733-117.339 12.74-164.714 2.771-7.56 18.884-16.143 38.34-25.57 58.127 50.628 19.516 99.147 47.767 136.975 88.365 33.31-39.394 53.489-90.172 53.489-145.619 0-1.235-0.18-2.409-0.18-3.644zM407.281 391.243c-34.937-37.858-80.956-64.301-129.416-82.522-22.889 44.212-50.899 89.148-84.751 132.066 19.998 5.813 41.050 9.095 62.886 9.095 58.248 0 111.195-22.347 151.281-58.639zM163.539 429.854c34.124-42.075 62.102-86.859 85.173-131.102-89.57-27.708-179.682-30.961-214.257-31.021 14.276 72.493 63.368 132.518 129.084 162.124zM30.117 224c0 4.548 0.422 9.036 0.663 13.523 1.958-0.030 4.036-0.030 6.385-0.030 39.334 0 132.578 3.764 225.34 33.551 9.036-18.823 17.408-37.496 24.697-55.537-108.574-33.159-172.755-111.586-196.156-145.348-37.677 40.358-60.928 94.358-60.928 153.841zM113.182 49.197c17.95 27.136 78.336 105.954 185.073 137.637 28.943-78.245 42.315-142.878 47.164-170.195-27.437-11.866-57.645-18.522-89.419-18.522-54.151 0-103.876 19.185-142.818 51.079zM373.459 31.428c-5.964 32.015-19.155 91.618-45.267 162.786 43.49 8.433 93.636 8.674 150.829-4.367-10.27-67.042-49.935-124.356-105.563-158.419z" />
<glyph unicode="&#xe656;" d="M507.572 348.356l-159.503 104.026-92.070-76.439-91.738 76.439-159.834-104.026 93.365-74.572-93.335-74.752 103.725-67.554v-46.171l148.089-88.516 148.359 88.486v46.622l102.912 67.162-93.305 74.722 93.334 74.572zM350.178 415.036l106.014-69.15-67.222-53.669-107.219 65.957 68.428 56.862zM361.412 273.784l-105.412-65.024-105.412 65.024 105.412 64.874 105.412-64.874zM55.808 345.886l106.225 69.15 68.216-56.832-107.249-65.988-67.192 53.669zM55.778 201.563l67.222 53.88 107.279-66.198-68.246-56.923-106.255 69.24zM374.513 102.385l-118.212-70.565-117.971 70.536v9.487l25.962-16.896 91.769 76.499 92.040-76.499 26.443 17.257v-9.819zM456.222 201.532l-106.044-69.21-68.457 56.923 107.249 66.198 67.252-53.91z" />
<glyph unicode="&#xe657;" d="M15.059 198.58l141.764-92.461 99.177 82.703-142.908 88.245zM156.822 448.015l-141.764-92.491 98.033-78.457 142.908 88.154zM496.941 355.524l-141.733 92.491-99.207-82.793 142.938-88.154zM256 188.822l99.207-82.703 141.733 92.461-98.003 78.486zM256.301 171.023l-99.478-82.492-42.556 27.829v-31.172l142.035-85.203 142.065 85.203v31.172l-42.587-27.829z" />
<glyph unicode="&#xe658;" d="M257.897-16.941c-111.978 0-212.691 88.124-212.691 207.993 0 119.688 93.304 175.074 110.592 184.139 20.601 10.963 35.418 16.745 58.73 35.388 11.535 9.065 21.143 22.257 24.184 54.362 16.715-20.028 36.774-43.339 51.019-52.977 23.341-15.36 46.683-21.413 71.077-36.774 14.818-9.065 105.954-64.753 105.954-187.964 0-122.94-97.159-204.167-208.866-204.167zM422.55 181.745c-21.956 0-66.409-45.568-89.721-45.839-27.136-0.542-64.723 53.82-119.085 53.308-42.827-0.301-76.559-34.334-77.132-70.565-0.271-20.329 6.325-35.418 20.329-44.996 9.337-6.295 17.829-10.149 45.538-10.149 46.11 0 104.568 57.103 131.464 56.23 21.384-0.783 54.573-53.248 71.349-54.332 13.161-1.084 20.028 4.94 31.262 21.113 10.963 16.474 15.661 42.285 15.661 56.832 0 14.245-6.325 38.4-29.666 38.4zM358.912 36.036c-9.337-6.867-30.208-15.39-59.844-15.39s-43.611 6.325-52.947 13.462c-1.356 1.084-0.813 1.084-3.584 1.084-3.012 0-4.638-1.385-7.108-3.283-2.198-1.928-3.283-6.596 0-9.878 20.299-18.643 54.332-17.017 79.3-14.788 25.269 2.469 46.683 17.257 48.851 19.456 3.283 3.252 2.469 6.024 1.897 7.951-0.542 1.928-2.199 4.638-6.565 1.385zM344.064 82.929c-5.481 3.554-13.402 4.126-20.812 4.126-7.439 0-11.535 0.542-19.456-2.74-8.012-3.283-16.233-10.692-21.413-15.39-5.24-4.638-6.053-8.222-3.313-12.077 2.771-3.524 5.783-1.325 13.462 5.24 7.951 6.325 13.192 12.077 29.365 12.077s18.944-6.053 22.197-12.077c3.313-6.024 3.584-6.867 6.867-5.24 3.855 1.928 5.783 4.699 3.855 9.397-1.957 4.638-5.24 12.86-10.752 16.685z" />
<glyph unicode="&#xe659;" d="M0 419.764v-391.529h512v391.529h-512zM255.82 184.335l-207.691 205.312h416.226l-208.535-205.312zM173.327 223.518l-143.209-141.011v282.594l143.209-141.583zM194.74 202.346l61.019-60.325 60.115 59.212 144.565-142.878h-411.919l146.221 143.993zM337.348 222.344l144.535 142.306v-285.124l-144.534 142.818z" />
<glyph unicode="&#xe65a;" d="M60.236 480v-512h391.529v512h-391.529zM141.403 359.529l-42.406 90.353h314.007l-42.466-90.353h-229.135zM122.308 329.412h118.634v-271.059h-120.531l-30.058-34.786v373.88l31.955-68.036zM134.174 28.236h243.712l25.962-30.118h-295.635l25.962 30.118zM391.71 58.353h-120.651v271.059h118.603l31.985 68.096v-373.911l-29.937 34.756z" />
<glyph unicode="&#xe65b;" d="M404.962 353.476l-156.492 90.383c-20.781 11.957-49.694 4.247-61.681-16.565l-180.706-313.012c-12.469-21.564-5.029-49.243 16.564-61.741l95.744-54.935 131.222 0.542 171.911 293.617c12.438 21.564 5.029 49.243-16.565 61.711zM232.298 28.205l-105.954-0.421-88.697 50.868c-7.198 4.187-9.668 13.372-5.511 20.601l82.823 143.481 181.519-104.81-64.18-109.719zM395.445 306.914l-83.757-143.059-181.669 104.9 82.823 143.481c2.68 4.638 7.71 7.53 13.071 7.53 2.65 0 5.18-0.663 7.5-1.988l156.492-90.353c7.198-4.186 9.668-13.402 5.541-20.51zM512 28.236v-30.118h-210.823v30.118h210.823z" />
<glyph unicode="&#xe65c;" d="M180.706 26.94v212.119h-30.118v-212.119l-109.809 109.809-21.293-21.293 146.161-146.161 146.191 146.191-21.293 21.293-109.839-109.839zM165.286 12.243h0.692l-0.332-0.361-0.362 0.361zM471.221 311.221l-109.809 109.839v-213.715h-30.118v213.715l-109.809-109.839-21.323 21.323 146.191 146.161 146.191-146.191-21.324-21.293z" />
<glyph unicode="&#xe65d;" d="M131.283 300.62l-21.624 20.992 146.341 150.739 146.341-150.739-21.625-20.962-109.659 112.941v-324.277h-30.118v324.276l-109.659-112.971zM481.882 208.038v-194.861c0-8.313-6.747-15.059-15.059-15.059h-421.647c-8.313 0-15.059 6.747-15.059 15.059v195.012h-30.117v-195.012c0-24.908 20.269-45.176 45.176-45.176h421.647c24.908 0 45.176 20.269 45.176 45.176v194.861h-30.118z" />
<glyph unicode="&#xe65e;" d="M510.946 214.452c-38.671 98.394-141.161 164.533-254.946 164.533s-216.275-66.139-254.946-164.533c-1.385-3.524-1.385-7.469 0-10.993 38.701-98.425 141.161-164.563 254.946-164.563s216.245 66.108 254.946 164.532c1.415 3.554 1.415 7.469 0 11.023zM256 69.014c-99.328 0-188.808 55.988-224.648 139.927 35.81 83.938 125.29 139.927 224.648 139.927s188.837-55.989 224.648-139.927c-35.84-83.908-125.32-139.927-224.648-139.927zM256 318.66c-60.507 0-109.719-49.212-109.719-109.718s49.212-109.719 109.748-109.719c60.476 0 109.719 49.212 109.719 109.719s-49.243 109.719-109.749 109.719zM256 129.34c-43.911 0-79.631 35.719-79.631 79.601s35.749 79.601 79.631 79.601c43.882 0 79.601-35.719 79.601-79.601s-35.69-79.601-79.601-79.601zM256 249.811c-22.528 0-40.87-18.341-40.87-40.869s18.341-40.87 40.87-40.87 40.87 18.341 40.87 40.87-18.341 40.87-40.87 40.87zM256 198.189c-5.933 0-10.752 4.819-10.752 10.752s4.819 10.752 10.752 10.752 10.752-4.819 10.752-10.752-4.819-10.752-10.752-10.752z" />
<glyph unicode="&#xe65f;" d="M375.296 312.245l-9.306-88.245h-70.536v-256h-105.954v256h-52.796v88.245h52.796v53.127c0 71.771 29.846 114.628 114.688 114.628h70.505v-88.245h-44.123c-32.918 0-35.117-12.438-35.117-35.418v-44.092h79.842z" />
<glyph unicode="&#xe660;" d="M256 480c-141.161 0-256-114.839-256-256s114.838-256 256-256 256 114.839 256 256-114.839 256-256 256zM256-1.882c-124.567 0-225.882 101.316-225.882 225.882s101.316 225.882 225.882 225.882 225.882-101.316 225.882-225.882-101.316-225.882-225.882-225.882zM391.529 88.471c0-8.313-6.747-15.059-15.059-15.059s-15.059 6.747-15.059 15.059c0 58.127-47.284 105.412-105.412 105.412s-105.412-47.284-105.412-105.412c0-8.313-6.746-15.059-15.059-15.059s-15.059 6.747-15.059 15.059c0 74.722 60.808 135.53 135.53 135.53s135.53-60.807 135.53-135.53zM135.53 314.353c0 16.625 13.493 30.118 30.118 30.118s30.118-13.493 30.118-30.118-13.493-30.118-30.118-30.118-30.118 13.493-30.118 30.118zM316.236 314.353c0 16.625 13.493 30.118 30.118 30.118s30.118-13.493 30.118-30.118-13.493-30.118-30.118-30.118-30.118 13.493-30.118 30.118z" />
<glyph unicode="&#xe661;" d="M256 480c-141.161 0-256-114.839-256-256s114.838-256 256-256 256 114.839 256 256-114.839 256-256 256zM256-1.882c-124.567 0-225.882 101.316-225.882 225.882s101.316 225.882 225.882 225.882 225.882-101.316 225.882-225.882-101.316-225.882-225.882-225.882zM391.529 208.941c0-74.722-60.808-135.53-135.53-135.53s-135.53 60.808-135.53 135.529c0 8.313 6.746 15.059 15.059 15.059s15.059-6.747 15.059-15.059c0-58.127 47.285-105.412 105.412-105.412s105.412 47.284 105.412 105.412c0 8.313 6.747 15.059 15.059 15.059s15.059-6.747 15.059-15.059zM135.53 314.353c0 16.625 13.493 30.118 30.118 30.118s30.118-13.493 30.118-30.118-13.493-30.118-30.118-30.118-30.118 13.493-30.118 30.118zM316.236 314.353c0 16.625 13.493 30.118 30.118 30.118s30.118-13.493 30.118-30.118-13.493-30.118-30.118-30.118-30.118 13.493-30.118 30.118z" />
<glyph unicode="&#xe662;" d="M291.147 480h-230.912v-512h391.529v352.135l-160.618 159.865zM301.176 427.535l98.575-98.123h-98.575v98.123zM90.353-1.882v451.764h180.706v-150.588h150.588v-301.176h-331.294z" />
<glyph unicode="&#xe663;" d="M376.38 480h-195.674v-60.536h30.118v30.419h150.588v-120.47h120.471v-240.941h-120.983v-30.118h151.1v295.695l-135.62 125.952zM391.529 424.825l70.325-65.295h-70.325v65.295zM0 389.647v-421.647h331.294v295.695l-135.62 125.952h-195.674zM210.823 334.471l70.325-65.295h-70.325v65.295zM30.117-1.882v361.412h150.588v-120.471h120.47v-240.941h-271.059z" />
<glyph unicode="&#xe664;" d="M16.264 480l194.56-277.956v-234.044h90.353v234.044l194.56 277.956h-479.473zM271.059 211.531v-213.413h-30.118v213.413l-166.852 238.351h363.821l-166.852-238.351z" />
<glyph unicode="&#xe665;" d="M391.529 178.582v278.227l-357.767-139.113 357.767-139.113zM361.412 222.584l-244.585 95.112 244.585 95.141v-190.253zM451.764 480v-512h-30.118v512h30.118z" />
<glyph unicode="&#xe666;" d="M451.764 480v-512h-30.118v512h30.118zM45.989 450.605h345.54v-240.941h-346.052l87.673 119.025-87.16 121.916zM361.412 420.488h-256.844l65.807-92.040-65.295-88.666h256.332v180.706z" />
<glyph unicode="&#xe667;" d="M451.764 480v-512h-30.118v512h30.118zM150.107 449.882h240.941v-240.941h-150.107v-60.236h-210.823v240.941h119.988v60.236zM210.823 208.941h-60.236v150.588h-90.353v-180.706h150.588v30.118zM180.224 419.764v-30.118h0.482v-150.588h180.224v180.706h-180.706z" />
<glyph unicode="&#xe668;" d="M219.708 224c0-60.657-49.212-109.839-109.809-109.839-60.687 0-109.9 49.182-109.9 109.839s49.212 109.839 109.9 109.839c60.596 0 109.809-49.182 109.809-109.839zM512 224c0-60.657-49.212-109.839-109.899-109.839-60.596 0-109.809 49.212-109.809 109.839s49.212 109.839 109.809 109.839c60.687 0 109.899-49.182 109.899-109.839zM481.882 224c0 43.972-35.78 79.721-79.781 79.721-43.942 0-79.692-35.78-79.692-79.721s35.75-79.721 79.692-79.721c44.002 0 79.781 35.75 79.781 79.721z" />
<glyph unicode="&#xe669;" d="M256 464.941c-133.060 0-240.941-107.911-240.941-240.941 0-133.060 107.882-240.941 240.941-240.941s240.941 107.882 240.941 240.941c0 133.029-107.882 240.941-240.941 240.941zM163.629 149.339c-41.894 0-75.867 33.913-75.867 75.836 0 41.894 33.972 75.836 75.867 75.836s75.806-33.942 75.806-75.836c0-41.924-33.942-75.836-75.806-75.836zM353.882 149.339c-41.894 0-75.836 33.913-75.836 75.836 0 41.894 33.942 75.836 75.836 75.836s75.836-33.942 75.836-75.836c0-41.924-33.942-75.836-75.836-75.836z" />
<glyph unicode="&#xe66a;" d="M240.941 359.529l-58.97 60.236h-181.971v-451.764h512v391.529h-271.059zM169.321 389.647l58.97-60.236h253.59v-61.048l-451.764 0.783v120.501h139.204zM30.117-1.882v240.911l451.764-0.783v-240.128h-451.764z" />
<glyph unicode="&#xe66b;" d="M481.762 138.104l0.12-139.987-140.017 0.12 0.030 30.118 88.546-0.091-174.441 174.411-174.441-174.442 88.546 0.091 0.030-30.118-140.017-0.091 0.12 140.017 30.117-0.030-0.090-88.516 174.441 174.411-174.441 174.442 0.090-88.516-30.117-0.030-0.12 139.987 140.017-0.12-0.030-30.118-88.546 0.091 174.441-174.442 174.441 174.442-88.546-0.091-0.030 30.118 140.017 0.12-0.12-140.017-30.118 0.030 0.091 88.516-174.441-174.411 174.442-174.442-0.091 88.516 30.118 0.030z" />
<glyph unicode="&#xe66c;" d="M391.529 178.824v301.176h-391.529v-391.529h391.529v90.353zM30.117 449.882h331.294v-240.941h-22.739l-77.221 99.961-34.906-36.563-67.704 116.887-107.701-180.284h-21.022v240.941zM300.635 208.941h-214.407l72.222 120.892 62.163-107.339 38.4 40.267 41.623-53.82zM30.117 118.588v60.236h331.294v-60.236h-331.294zM512 389.647v-391.529h-391.529v59.753h30.118v-29.636h331.294v331.294h-60.236v30.118h90.353z" />
<glyph unicode="&#xe66d;" d="M271.059 359.891v89.991h-30.118v-89.991c-107.339-3.163-240.941-38.611-240.941-74.903v-212.059c0-24.908 20.269-45.176 45.176-45.176h53.91l60.115 118.392c17.077-3.132 51.591-8.252 95.564-8.252 44.544 0 81.137 5.24 99.027 8.342l57.464-118.483h55.567c24.907 0 45.176 20.269 45.176 45.176v212.059c0 36.292-133.632 71.77-240.941 74.902zM481.882 72.93c0-8.283-6.776-15.059-15.059-15.059h-36.683l-59.512 122.579-11.625-2.56c-0.452-0.091-45.628-9.909-104.267-9.909-58.459 0-99.84 9.728-100.262 9.849l-11.565 2.801-62.284-122.73h-35.449c-8.282 0-15.059 6.776-15.059 15.059v208.263c15.119 13.162 101.797 45.719 210.823 48.519v-0.332h30.117v0.392c108.996-2.831 195.704-35.388 210.823-48.55v-208.324zM150.588 268.574h30.058v-30.118h-30.058v-30.72h-30.118v30.72h-30.118v30.117h30.118v30.72h30.118v-30.72zM376.471 208.339c24.908 0 45.176 20.269 45.176 45.177s-20.269 45.177-45.176 45.177-45.176-20.239-45.176-45.177 20.269-45.177 45.176-45.177zM376.471 268.574c8.283 0 15.059-6.776 15.059-15.059s-6.776-15.059-15.059-15.059-15.059 6.776-15.059 15.059 6.776 15.059 15.059 15.059z" />
<glyph unicode="&#xe66e;" d="M236.092 311.010l-1.024-5.964 20.269 2.59c0.12 0 0.632 0.091 0.934 0.12l19.185-2.439-0.933 5.452c32.828 6.084 99.629 21.835 137.788 54.513 14.878 12.709 23.070 29.817 23.070 48.188s-8.192 35.478-23.070 48.219c-28.371 24.335-77.132 24.305-105.502 0-24.516-20.992-40.93-51.983-51.531-79.149-10.601 27.106-27.016 58.007-51.531 78.938-28.34 24.275-77.041 24.245-105.382 0-14.878-12.709-23.070-29.786-23.070-48.098s8.192-35.358 23.070-48.038c38.159-32.587 104.96-48.279 137.728-54.332zM326.385 438.799c8.764 7.5 20.51 11.626 33.159 11.626 12.62 0 24.425-4.126 33.159-11.626 8.101-6.897 12.529-15.902 12.529-25.329 0-9.397-4.428-18.372-12.529-25.299-31.082-26.594-88.214-40.81-119.447-46.923 7.379 26.745 23.582 72.252 53.127 97.551zM117.91 438.588c8.764 7.469 20.51 11.595 33.159 11.595 12.619 0 24.395-4.126 33.13-11.595 29.395-25.088 45.598-70.385 53.007-97.069-31.202 6.053-88.185 20.179-119.296 46.743-8.072 6.867-12.499 15.781-12.499 25.118 0 9.366 4.427 18.312 12.499 25.209zM512 299.294h-512v-120.47h30.117v-210.824h451.764v210.823h30.118v120.471zM210.101 269.177h90.534l32.106-175.978-49.634 20.63-39.183-36.292-33.822 191.639zM30.117 269.177h149.383l10.631-60.236h-160.015v60.236zM451.764-1.882h-391.529v180.706h135.228l28.371-160.918 65.536 60.687 82.884-34.485-24.546 134.716h104.056v-180.706zM481.882 208.941h-139.685l-10.993 60.236h150.679v-60.236z" />
<glyph unicode="&#xe66f;" d="M393.849 145.243c0-22.468-11.716-59.091-39.394-59.091-27.708 0-39.424 36.623-39.424 59.091 0 22.438 11.716 59.091 39.424 59.091 27.678 0 39.394-36.653 39.394-59.091zM157.546 204.333c-27.678 0-39.394-36.653-39.394-59.091 0-22.468 11.716-59.091 39.394-59.091s39.394 36.623 39.394 59.091c0 22.438-11.716 59.091-39.394 59.091zM512 199.394c0-34.183-3.373-70.476-18.764-101.858-40.629-82.161-152.305-90.142-232.298-90.142-81.228 0-199.68 7.048-241.845 90.142-15.722 31.082-19.095 67.675-19.095 101.858 0 44.935 12.318 87.371 41.864 121.826-5.541 16.926-8.313 34.786-8.313 52.344 0 23.070 5.21 46.11 15.691 67.072 48.61 0 79.692-21.233 116.615-50.146 31.082 7.379 63.066 10.752 95.082 10.752 28.913 0 58.157-3.102 86.166-9.849 36.623 28.612 67.675 49.243 115.682 49.243 10.481-20.932 15.692-44.002 15.692-67.072 0-17.558-2.771-35.087-8.313-51.712 29.546-34.756 41.834-77.523 41.834-122.459zM443.060 145.243c0 47.074-28.582 88.606-78.757 88.606-20.3 0-39.665-3.704-59.995-6.476-15.993-2.47-31.985-3.373-48.309-3.373s-32.316 0.904-48.309 3.373c-19.998 2.771-39.695 6.476-59.995 6.476-50.146 0-78.757-41.532-78.757-88.606 0-94.148 86.137-108.604 161.22-108.604h51.712c75.084-0.030 161.19 14.457 161.19 108.604z" />
<glyph unicode="&#xe670;" d="M512 401.243v-39.394h-78.757v-78.788h-39.394v78.788h-78.757v39.394h78.757v78.758h39.394v-78.758h78.757zM312.923 95.096c0-35.388-16.896-64-43.068-86.769-35.388-30.479-83.697-40.327-129.235-40.327-57.525 0-140.619 24.606-140.619 95.985 0 14.457 4.939 28.642 11.415 41.563 27.347 55.356 112.881 69.541 167.966 71.077-10.119 13.221-19.667 28.582-19.667 45.839 0 10.149 3.644 16.926 6.776 26.444-7.409-0.904-14.457-1.536-21.534-1.536-59.693 0-111.375 44.002-111.375 105.864 0 58.458 45.207 108.303 101.196 120.591 18.793 4.036 38.129 6.174 57.524 6.174h134.505l-41.532-24.305h-41.593c30.509-19.065 45.869-56.32 45.869-90.774 0-81.529-68.94-87.673-68.94-128.301 0-39.695 92.31-55.387 92.31-141.523zM232.659 333.839c0 46.772-25.268 123.995-82.191 123.995-40.267 0-59.964-35.69-59.964-72.012 0-46.743 30.75-119.988 85.534-119.988 42.105 0.030 56.621 30.479 56.621 68.005zM269.553 68.623c0 43.068-40.358 67.072-71.71 88.938-5.24 0.603-10.18 0.603-15.42 0.603-50.417 0-125.531-15.993-125.531-79.993 0-59.060 66.469-81.86 115.712-81.86 45.839 0 96.948 18.462 96.948 72.313z" />
<glyph unicode="&#xe671;" d="M420.533 311.341v-176.007c0-23.401-11.535-37.376-19.968-47.556-7.048-8.553-10.722-13.342-10.722-20.901v-53.7c0-8.313-6.747-15.059-15.059-15.059s-15.059 6.747-15.059 15.059v53.7c0 18.764 9.788 30.599 17.649 40.087 7.288 8.825 13.071 15.781 13.071 28.341v176.037c0 9.397-8.072 18.252-16.595 18.252-9.909 0-12.017-1.536-12.108-1.596-1.988-2.68-1.928-17.137-1.897-28.792 0.030-5.692 0.060-12.047-0.060-19.035-0.12-8.252-6.415-14.396-15.18-14.848-8.252 0.060-14.938 6.776-14.938 15.059v63.85c0 9.246-6.686 16.203-15.541 16.203-8.132 0-14.095-6.053-14.818-14.697v-60.325c0-8.313-6.747-15.059-15.059-15.059s-15.059 6.747-15.059 15.059v0 60.566c0 0.091-0.060 0.181-0.060 0.301v23.281c0 1.988-0.421 19.336-14.276 19.336-13.553 0-15.601-12.108-15.601-19.336v-21.172c0-0.844-0.332-1.627-0.482-2.44v-78.125c0-8.313-6.746-15.059-15.059-15.059s-15.059 6.746-15.059 15.059v0 80.836c-1.446 5.843-5.662 11.746-14.035 11.746-8.613 0-15.872-7.861-15.872-17.167v-100.894c0-0.211-0.18-0.392-0.18-0.602v-33.16c0-8.313-6.746-15.059-15.059-15.059s-15.059 6.747-15.059 15.059v25.118c-5.3 1.928-12.981 3.494-17.378 2.5-3.554-0.692-7.138-3.825-9.367-8.162-1.777-3.404-4.156-10.451-0.271-19.185l51.14-111.947c0.482-1.054 0.813-2.139 1.054-3.252 1.686-8.283 9.397-13.733 17.709-12.981 4.186 0.542 8.463-0.904 11.655-3.764 3.162-2.861 5-6.927 5-11.204v-52.525c0-8.313-6.746-15.059-15.059-15.059s-15.059 6.747-15.059 15.059v38.731c-16.143 4.187-29.184 16.896-33.34 33.882l-50.567 110.683c-6.626 14.938-6.234 31.412 0.964 45.387 6.445 12.439 17.709 21.353 30.148 23.883 6.325 1.295 14.878 0.934 23.341-0.783v21.685c0 0.301 0.15 0.572 0.18 0.874v55.717c0 26.082 20.661 47.284 45.989 47.284 6.024 0 11.806-1.204 17.047-3.373 5.994 19.396 22.076 31.834 43.159 31.834 20.118 0 35.9-12.709 41.834-31.955 5.361 2.259 11.234 3.493 17.438 3.493 20.751 0 37.888-13.372 43.58-32.286 5.512 1.204 11.113 1.476 16.143 1.476 25.359 0 46.743-22.137 46.743-48.369z" />
<glyph unicode="&#xe672;" d="M459.053 316.762l-35.78-242.868c-3.554-18.432-11.716-26.503-17.649-32.406-5.752-5.723-9.577-9.517-9.577-28.1v-30.329c0-8.313-6.747-15.059-15.059-15.059s-15.059 6.747-15.059 15.059v30.329c0 28.762 8.373 39.424 18.492 49.453 4.668 4.638 7.469 7.439 9.156 16.083l35.69 242.116c0.542 3.705 1.536 16.264-8.222 17.619-3.373 0.482-6.114-0.060-8.283-1.716-2.892-2.139-4.94-6.294-5.662-11.385l-14.969-99.87c-0.753-5.15-4.156-9.517-8.915-11.596s-10.27-1.506-14.577 1.476c-1.506-0.241-4.036 0.692-6.565 2.349-4.578 2.921-7.198 8.072-6.897 13.493l8.584 159.202c0.692 8.373-5.12 15.33-13.011 16.023-3.825 0.361-7.5-0.844-10.421-3.283-2.952-2.47-4.699-5.903-5.029-9.668l-13.945-144.023c-0.783-8.101-7.198-13.975-15.993-13.583-2.44 0.15-4.909 0.301-7.409 0.332-8.101 0.18-14.607 6.716-14.757 14.788l-3.464 184.29c0 8.072-6.325 14.396-14.095 14.396s-14.095-6.325-14.095-14.095l-3.554-198.355c-0.12-5.722-3.434-10.903-8.613-13.342-1.868-0.903-3.674-1.807-5.391-2.771-4.428-2.53-9.819-2.62-14.336-0.241-4.518 2.349-7.559 6.837-8.071 11.897l-15.511 160.497c-0.332 3.945-2.108 7.379-5 9.819-2.922 2.439-6.867 3.554-10.391 3.283-3.795-0.332-7.198-2.108-9.637-5.029-2.41-2.892-3.584-6.565-3.252-10.33l15.149-213.745c0.482-6.565-3.404-12.709-9.548-15.089-6.204-2.409-13.191-0.512-17.257 4.668l-46.713 58.82c-6.114 10.24-16.926 13.101-25.299 8.252-4.096-2.38-7.017-6.174-8.222-10.722-1.204-4.517-0.603-9.276 1.807-13.342l106.285-183.326c2.41-4.187 6.355-7.108 11.053-8.252 6.746-1.627 11.505-7.68 11.505-14.637v-20.781c0-8.313-6.746-15.059-15.059-15.059s-15.059 6.747-15.059 15.059v10.541c-7.65 4.126-14.005 10.27-18.492 18.010l-106.316 183.326c-6.415 11.023-8.132 23.884-4.819 36.202 3.252 12.348 11.174 22.649 22.257 29.063 22.829 13.162 52.043 5.331 65.174-17.438l15.239-19.095-11.716 165.135c-1.024 11.505 2.59 23.010 10.18 32.106 7.589 9.036 18.311 14.607 30.088 15.661 11.957 1.084 23.341-2.62 32.436-10.24 4.397-3.704 7.921-8.101 10.541-12.981l0.422 22.678c0 24.154 19.847 43.972 44.212 43.972s44.212-19.848 44.212-44.243l0.421-22.468c2.651 4.909 6.204 9.337 10.632 13.071 9.125 7.65 20.721 11.324 32.467 10.24 24.425-2.139 42.526-23.732 40.388-48.128l-1.596-29.455c0.783 0.692 1.627 1.356 2.44 1.988 8.674 6.505 19.185 9.036 30.66 7.469 23.642-3.283 37.587-24.576 33.792-51.712z" />
<glyph unicode="&#xe673;" d="M414.208 139.58c-28.793-17.378-51.26 5.211-59.693 13.673l-7.83 8.493v-147.516c0-25.51-20.329-46.231-45.327-46.231s-45.327 20.721-45.327 46.231v70.024c-4.879-1.777-10.119-2.74-15.571-2.74-23.793 0-43.369 18.944-45.056 42.887-4.758-1.777-9.879-2.711-15.209-2.711-24.998 0-45.327 20.751-45.327 46.291v4.096c-4.367-1.476-9.035-2.259-13.945-2.259-25.148 0-45.628 20.751-45.628 46.231v95.955c0 20.179 9.698 46.833 18.252 70.325 5.572 15.269 11.867 32.587 11.867 39.424v25.781c0 8.313 6.746 15.059 15.059 15.059s15.059-6.747 15.059-15.059v-25.75c0-12.168-6.024-28.762-13.674-49.755-7.71-21.173-16.444-45.147-16.444-60.024v-95.955c0-8.734 7.108-16.113 15.54-16.113 8.794 0 13.674 7.891 13.944 15.661 0.301 8.132 6.957 14.517 15.059 14.517 0.090 0 0.18 0 0.271 0 8.192-0.15 14.788-6.867 14.788-15.059v-47.044c0-8.915 6.837-16.173 15.209-16.173 7.951 0 14.577 6.626 15.119 15.059 0.482 8.101 7.077 14.156 15.481 14.095 8.132-0.271 14.577-6.927 14.577-15.059v-38.189c0-8.885 6.776-16.113 15.059-16.113 7.8 0 14.667 6.084 15.691 13.884 1.024 7.861 8.041 13.974 15.902 13.101 7.921-0.512 14.095-7.077 14.095-15.029v-109.357c0-8.885 6.837-16.113 15.209-16.113s15.209 7.228 15.209 16.113v186.127c0 6.204 3.795 11.776 9.577 14.035 5.692 2.259 12.318 0.723 16.565-3.825l33.551-36.473c13.824-13.914 18.281-11.234 22.528-8.644 7.409 4.397 9.969 14.577 5.662 22.287l-99.027 213.775c-1.596 2.74-4.94 5.361-8.945 6.355-6.686 1.687-11.385 7.68-11.385 14.607v25.058c0 8.313 6.747 15.059 15.059 15.059s15.059-6.746 15.059-15.059v-15.029c7.017-4.036 12.89-9.939 16.986-17.288l99.027-213.775c11.836-20.901 4.457-49.122-17.017-61.861z" />
<glyph unicode="&#xe674;" d="M494.592 73.412c0-8.313-6.747-15.059-15.059-15.059h-25.75c-6.837 0-24.154-6.295-39.424-11.866-23.522-8.553-50.176-18.252-70.355-18.252h-95.924c-25.51 0-46.261 20.48-46.261 45.659 0 4.909 0.783 9.577 2.259 13.945h-4.066c-25.51 0-46.261 20.36-46.261 45.357 0 5.331 0.934 10.421 2.68 15.18-23.944 1.656-42.888 21.203-42.888 45.026 0 5.452 0.964 10.692 2.74 15.601h-70.053c-25.509 0-46.23 20.329-46.23 45.297 0 24.997 20.721 45.357 46.23 45.357h147.486l-8.012 7.379c-8.915 8.885-31.412 31.322-14.095 60.175 12.74 21.384 40.96 28.763 62.886 16.475l211.667-97.942c8.072-4.488 14.185-10.481 18.281-17.559h15.059c8.313 0 15.059-6.747 15.059-15.059s-6.747-15.059-15.059-15.059h-25.028c-6.897 0-12.921 4.668-14.607 11.385-1.024 4.006-3.644 7.379-7.379 9.487l-211.667 97.913c-8.855 4.94-18.884 2.409-23.341-5.090-2.59-4.337-5.24-8.734 9.036-23.010l36.020-33.069c4.578-4.216 6.084-10.752 3.825-16.565s-7.831-9.577-14.035-9.577h-186.127c-8.855 0-16.083-6.837-16.083-15.239 0-8.373 7.228-15.179 16.113-15.179h109.357c7.951 0 14.517-6.144 15.029-14.095 0.512-7.921-5.21-14.878-13.071-15.902-7.8-0.994-13.884-7.921-13.884-15.721 0-8.283 7.228-15.059 16.113-15.059h38.189c8.132 0 14.818-6.476 15.059-14.577 0.241-8.162-6.024-14.998-14.125-15.51-8.433-0.542-15.029-7.138-15.029-15.089 0-8.403 7.258-15.24 16.143-15.24h47.044c8.222 0 14.908-6.596 15.059-14.788s-6.325-15.029-14.517-15.33c-7.77-0.271-15.661-5.15-15.661-13.945 0-8.403 7.409-15.51 16.143-15.51h95.924c14.878 0 38.882 8.734 60.055 16.444 20.962 7.65 37.556 13.673 49.694 13.673h25.75c8.342 0 15.089-6.747 15.089-15.059z" />
<glyph unicode="&#xe675;" d="M509.651 254.298c0-24.968-20.721-45.297-46.231-45.297h-70.024c1.777-4.879 2.74-10.149 2.74-15.601 0-23.823-18.944-43.37-42.887-45.056 1.747-4.759 2.68-9.849 2.68-15.18 0-24.998-20.751-45.357-46.26-45.357h-4.096c1.476-4.367 2.259-9.036 2.259-13.945 0-25.148-20.781-45.628-46.26-45.628h-95.924c-20.179 0-46.833 9.698-70.355 18.252-15.27 5.572-32.557 11.866-39.424 11.866h-25.75c-8.313 0-15.059 6.747-15.059 15.059s6.746 15.059 15.059 15.059h25.75c12.137 0 28.732-6.024 49.694-13.673 21.203-7.71 45.207-16.444 60.084-16.444h95.924c8.764 0 16.143 7.108 16.143 15.541 0 8.795-7.891 13.673-15.661 13.945-8.192 0.301-14.667 7.108-14.517 15.33s6.867 14.788 15.059 14.788h47.044c8.915 0 16.143 6.837 16.143 15.24 0 7.951-6.596 14.547-14.998 15.089-8.162 0.512-14.396 7.349-14.156 15.51 0.271 8.132 6.897 14.577 15.059 14.577h38.189c8.885 0 16.113 6.776 16.113 15.059 0 7.8-6.114 14.697-13.914 15.692-7.861 1.024-13.583 8.012-13.071 15.902 0.542 7.951 7.077 14.095 15.029 14.095h109.357c8.885 0 16.113 6.806 16.113 15.179 0 8.403-7.228 15.24-16.113 15.24h-186.127c-6.204 0-11.776 3.795-14.035 9.577s-0.692 12.348 3.855 16.565l36.472 33.521c13.854 13.824 11.204 18.221 8.644 22.528-4.457 7.499-14.457 10.089-22.348 5.662l-213.745-98.997c-2.68-1.566-5.3-4.939-6.355-8.945-1.656-6.716-7.65-11.385-14.577-11.385h-25.058c-8.313 0-15.059 6.746-15.059 15.059s6.746 15.059 15.059 15.059h15.029c4.036 7.018 9.909 12.891 17.258 16.987l213.775 99.027c20.872 11.746 49.152 4.397 61.892-17.016 17.288-28.822-5.211-51.26-13.644-59.693l-8.493-7.83h147.486c25.479 0 46.231-20.36 46.231-45.357z" />
<glyph unicode="&#xe676;" d="M436.706 231.951v-95.955c0-20.179-9.698-46.833-18.252-70.325-5.572-15.269-11.866-32.587-11.866-39.454v-25.75c0-8.313-6.747-15.059-15.059-15.059s-15.059 6.747-15.059 15.059v25.75c0 12.168 6.053 28.762 13.673 49.755 7.71 21.142 16.444 45.116 16.444 59.995v95.985c0 8.734-7.108 16.113-15.541 16.113-8.795 0-13.673-7.891-13.945-15.661-0.271-8.192-6.295-15.269-15.3-14.517-8.192 0.151-14.788 6.867-14.788 15.059v47.044c0 8.915-6.837 16.173-15.209 16.173-7.951 0-14.577-6.626-15.119-15.059-0.512-8.132-6.867-14.607-15.51-14.095-8.132 0.271-14.577 6.927-14.577 15.059v38.159c0 8.885-6.747 16.113-15.059 16.113-7.8 0-14.668-6.084-15.691-13.884-1.024-7.831-7.891-13.884-15.902-13.071-7.921 0.512-14.095 7.077-14.095 15.029v109.357c0 8.885-6.837 16.113-15.209 16.113s-15.209-7.228-15.209-16.113v-186.127c0-6.204-3.795-11.776-9.577-14.035-5.752-2.259-12.348-0.723-16.565 3.825l-33.551 36.472c-13.824 13.915-18.281 11.264-22.528 8.644-7.409-4.397-9.969-14.577-5.662-22.287l99.027-213.775c1.596-2.74 4.97-5.361 8.945-6.355 6.716-1.716 11.385-7.71 11.385-14.607v-25.058c0-8.313-6.746-15.059-15.059-15.059s-15.059 6.747-15.059 15.059v15.029c-7.018 4.036-12.86 9.939-17.017 17.288l-98.996 213.775c-11.836 20.902-4.427 49.122 17.017 61.862 28.913 17.317 51.291-5.21 59.693-13.673l7.831-8.493v147.516c0 25.51 20.359 46.231 45.327 46.231s45.327-20.721 45.327-46.231v-70.023c4.879 1.747 10.119 2.71 15.571 2.71 23.823 0 43.37-18.944 45.056-42.887 4.759 1.777 9.878 2.71 15.209 2.71 24.998 0 45.327-20.751 45.327-46.291v-4.096c4.367 1.476 9.036 2.259 13.945 2.259 25.148 0.030 45.628-20.721 45.628-46.201z" />
<glyph unicode="&#xe677;" d="M421.647 347.392v-218.594c0-25.781-10.149-56.23-19.125-83.065-5.391-16.204-10.993-32.918-10.993-40.087v-22.588c0-8.313-6.747-15.059-15.059-15.059s-15.059 6.747-15.059 15.059v22.588c0 12.047 5.541 28.612 12.559 49.604 7.8 23.492 17.558 52.676 17.558 73.548v218.594c0 8.283-6.204 14.547-14.396 14.547-8.373 0-15.42-6.325-15.692-14.095 0-0.091-0.060-0.18-0.060-0.271l0.030-116.254c0-8.313-6.747-15.059-15.059-15.059s-15.059 6.747-15.059 15.059l-0.030 123.061c0 0.15 0.091 0.271 0.091 0.452v42.345c0 6.988-4.216 14.547-13.433 14.547-8.252 0-15.902-6.325-16.384-13.553-0.030-0.392-0.301-0.753-0.361-1.174v-134.927c0-8.313-6.747-15.059-15.059-15.059s-15.059 6.716-15.059 15.059v147.456c0 0.662 0.301 1.265 0.392 1.897v23.943c0 7.861-7.259 14.517-15.812 14.517-8.403 0-14.969-6.355-14.969-14.517v-26.082c0.060-0.452 0.271-0.844 0.271-1.325v0-147.456c0-8.313-6.746-15.059-15.059-15.059s-15.059 6.746-15.059 15.059v0 138.3c0 0.12-0.090 0.211-0.12 0.332-0.994 7.168-7.469 12.589-15.059 12.589-8.403 0-15.209-6.536-15.209-14.547v-171.821c0-6.264-3.855-11.866-9.698-14.065-5.752-2.199-12.439-0.603-16.595 4.066l-33.642 37.767c-11.836 13.824-19.757 9.366-22.678 7.68-3.493-1.958-5.993-5.15-6.987-8.945-0.964-3.644-0.421-7.469 1.506-10.752l99.148-211.094c1.386-2.199 4.758-4.668 8.855-5.662 6.776-1.627 11.505-7.68 11.505-14.637v-26.654c0-8.313-6.746-15.059-15.059-15.059s-15.059 6.747-15.059 15.059v16.444c-6.957 3.855-12.74 9.457-16.866 16.414l-99.117 211.125c-5.421 9.005-7.078 21.022-4.036 32.557 3.102 11.656 10.662 21.383 21.263 27.407 20.359 11.475 42.828 6.204 60.236-14.095l7.138-8.012v132.276c0 24.636 20.329 44.664 45.327 44.664 5.24 0 10.331-0.903 15.059-2.56 2.018 22.799 21.383 40.719 44.906 40.719 24.124 0 43.942-18.191 45.809-41.171 5.15 1.928 10.722 3.012 16.505 3.012 24.425 0 43.55-19.606 43.55-44.664v-7.891c4.909 1.777 10.18 2.74 15.661 2.74 24.938 0.030 44.484-19.577 44.484-44.635z" />
<glyph unicode="&#xe678;" d="M425.683 389.767h-339.305l-86.377-131.734v-199.8h512v197.843l-86.317 133.692zM102.671 359.65h306.598l58.488-90.594h-424.478l59.392 90.594zM30.117 88.35v150.588h451.764v-150.588h-451.764zM406.588 208.82c-24.907 0-45.176-20.269-45.176-45.176s20.269-45.176 45.176-45.176 45.176 20.269 45.176 45.176-20.269 45.176-45.176 45.176zM406.588 148.586c-8.283 0-15.059 6.776-15.059 15.059s6.776 15.059 15.059 15.059 15.059-6.776 15.059-15.059-6.776-15.059-15.059-15.059z" />
<glyph unicode="&#xe679;" d="M406.588 103.529c-24.907 0-45.176-20.269-45.176-45.176s20.269-45.176 45.176-45.176 45.176 20.269 45.176 45.176-20.269 45.176-45.176 45.176zM406.588 43.294c-8.283 0-15.059 6.776-15.059 15.059s6.776 15.059 15.059 15.059 15.059-6.776 15.059-15.059-6.776-15.059-15.059-15.059zM512 385.13l-88.034 94.87h-335.842l-88.124-92.973v-193.747h28.19l-28.19-35.298v-189.982h512v188.536l-31.503 36.743h31.503v191.85zM101.044 449.882h309.79l55.838-60.236h-422.701l57.073 60.236zM30.117-1.882v120.471h451.764v-120.471h-451.764zM479.051 148.706h-447.94l35.569 44.574h374.182l38.189-44.574zM30.117 223.397v136.132h451.764v-136.132h-451.764zM406.588 329.412c-24.907 0-45.176-20.269-45.176-45.177 0-24.877 20.269-45.147 45.176-45.147s45.176 20.269 45.176 45.147c0 24.908-20.269 45.177-45.176 45.177zM406.588 269.207c-8.283 0-15.059 6.746-15.059 15.029s6.776 15.059 15.059 15.059 15.059-6.776 15.059-15.059-6.776-15.029-15.059-15.029z" />
<glyph unicode="&#xe67a;" d="M481.31 236.499c-5.783 135.319-104.478 243.501-225.31 243.501s-219.528-108.183-225.31-243.501c-17.77-6.054-30.69-22.769-30.69-42.617v-120.471c0-24.907 20.179-45.176 44.996-45.176h45.357v30.118h30.117v150.588h-30.118v30.118h-29.455c6.776 117.519 91.557 210.824 195.102 210.824s188.326-93.305 195.102-210.824h-29.455v-30.118h-30.118v-150.588h30.118v-30.118h45.357c24.817 0 44.996 20.269 44.996 45.176v120.471c0 19.848-12.921 36.563-30.69 42.617zM60.236 58.353h-15.239c-8.192 0-14.878 6.776-14.878 15.059v120.471c0 8.283 6.686 15.059 14.878 15.059h15.239v-150.588zM481.882 73.412c0-8.283-6.686-15.059-14.878-15.059h-15.24v150.588h15.24c8.192 0 14.878-6.776 14.878-15.059v-120.471z" />
<glyph unicode="&#xe67b;" d="M471.884 298.782c-28.822 107.128-116.344 181.218-215.884 181.218-99.238 0-187.091-74.21-215.883-181.218-22.498-2.47-40.117-21.444-40.117-44.665v-120.471c0-18.824 11.505-34.937 27.828-41.713 5.843-52.615 50.086-93.817 104.237-93.817h81.529c6.234-17.498 22.799-30.117 42.406-30.117h90.353c24.907 0 45.176 20.269 45.176 45.176s-20.269 45.176-45.176 45.176h-90.353c-19.607 0-36.172-12.62-42.406-30.118h-81.529c-36.382 0-66.771 25.901-73.758 60.236h32.045v30.118h30.118v150.588h-30.118v30.118h-18.251c27.498 89.178 100.954 150.588 183.899 150.588 83.185 0 156.401-61.35 183.899-150.588h-18.252v-30.118h-30.118v-150.588h30.118v-30.118h45.357c24.817 0 44.996 20.269 44.996 45.176v120.471c0 23.221-17.619 42.195-40.116 44.664zM256 28.236h90.353c8.283 0 15.059-6.747 15.059-15.059s-6.776-15.059-15.059-15.059h-90.353c-8.282 0-15.059 6.747-15.059 15.059s6.776 15.059 15.059 15.059zM60.236 118.588h-15.239c-8.192 0-14.878 6.747-14.878 15.059v120.471c0 8.313 6.686 15.059 14.878 15.059h15.239v-150.588zM481.882 133.647c0-8.313-6.686-15.059-14.878-15.059h-15.24v150.588h15.24c8.192 0 14.878-6.746 14.878-15.059v-120.471z" />
<glyph unicode="&#xe67c;" d="M376.471 460.183c-52.375 0-97.913-29.877-120.471-73.457-22.558 43.58-68.096 73.457-120.471 73.457-74.722 0-135.53-60.808-135.53-135.529 0-10.331 1.446-21.052 4.638-33.672l3.283-10.572c43.129-131.132 230.671-282.895 238.652-289.25l9.427-7.589 9.427 7.589c8.493 6.837 208.595 168.599 238.743 289.551l3.373 11.084c3.042 12.107 4.457 22.558 4.457 32.858 0 74.722-60.808 135.53-135.53 135.53zM478.539 299.897l-3.404-11.143c-24.365-97.762-179.079-232.719-219.136-266.331-38.611 32.618-184.38 160.738-219.407 267.204l-3.012 9.517c-2.319 9.366-3.463 17.709-3.463 25.51 0 58.127 47.284 105.412 105.412 105.412s105.412-47.315 105.412-105.412v-7.589h30.118v7.589c0 58.127 47.284 105.412 105.412 105.412s105.412-47.285 105.412-105.412c0-7.77-1.144-15.872-3.343-24.756z" />
<glyph unicode="&#xe67d;" d="M4.608 290.981c-3.163 12.62-4.608 23.341-4.608 33.672 0 74.722 60.807 135.529 135.53 135.529 52.374 0 97.912-29.876 120.47-73.457 22.558 43.58 68.096 73.457 120.471 73.457 74.722 0 135.529-60.808 135.529-135.529 0-10.3-1.416-20.721-4.428-32.858l-3.404-11.084c-2.44-9.969-6.867-21.715-13.644-36.111l-27.226 12.83c5.903 12.589 9.698 22.558 11.897 31.352l3.373 11.113c2.199 8.885 3.313 16.987 3.313 24.757 0 58.127-47.284 105.412-105.412 105.412s-105.412-47.315-105.412-105.412h-30.118c0 58.127-47.285 105.412-105.412 105.412s-105.412-47.315-105.412-105.412c0-7.801 1.145-16.143 3.493-25.51l3.012-9.517c2.831-8.644 7.078-18.612 13.282-31.111l-26.985-13.433c-6.867 13.854-11.626 25.088-14.998 35.328l-3.313 10.572zM255.97 21.88c-24.275 19.065-93.425 76.288-149.865 150.98l-24.004-18.191c72.102-95.382 161.25-161.19 164.984-163.93l8.975-6.565 8.915 6.626c3.885 2.861 95.985 71.5 166.731 163.78l-23.884 18.341c-55.658-72.553-127.067-131.494-151.853-151.040zM426.827 256.678l-85.293-60.236-85.293 60.236-85.323-60.236-85.444 60.205-94.148-66.319 17.348-24.636 76.8 54.151 85.444-60.265 85.323 60.236 85.293-60.236 85.293 60.236 76.469-54.091 17.408 24.576-93.876 66.38z" />
<glyph unicode="&#xe67e;" d="M310.543 33.325c0-27.046-21.986-49.031-49.062-49.031-27.166 0-49.122 21.986-49.122 49.031 0 27.106 21.956 49.092 49.122 49.092 27.046 0 49.062-21.986 49.062-49.092zM351.413 408.531c-15.42 19.426-43.49 42.587-89.841 42.587-123.422 0-127.85-113.182-127.88-114.327l30.118-0.783c0.090 3.463 3.313 84.992 97.762 84.992 34.334 0 54.964-16.956 66.228-31.172 16.716-21.083 21.082-45.418 18.793-55.206-8.764-37.014-30.449-56.531-53.399-77.192-28.16-25.329-57.224-51.501-57.224-107.159h30.118c0 42.225 20.841 61.019 47.255 84.781 24.214 21.805 51.652 46.501 62.555 92.702 4.488 19.095-2.5 53.007-24.486 80.775z" />
<glyph unicode="&#xe67f;" d="M256 480c-141.161 0-256-114.839-256-256s114.838-256 256-256 256 114.839 256 256-114.839 256-256 256zM256-1.882c-124.567 0-225.882 101.316-225.882 225.882s101.316 225.882 225.882 225.882 225.882-101.316 225.882-225.882-101.316-225.882-225.882-225.882zM290.876 111.993c0-17.107-13.914-31.051-31.051-31.051-17.197 0-31.112 13.945-31.112 31.051 0 17.167 13.915 31.082 31.112 31.082 17.137 0 31.051-13.884 31.051-31.082zM321.115 353.054c13.493-17.016 20.3-39.996 16.565-55.868-7.319-30.931-25.359-47.195-41.291-61.531-16.354-14.728-28.13-25.299-28.13-49.604h-30.118c0 37.677 20.209 55.899 38.069 71.981 13.884 12.499 26.986 24.305 32.106 46.050 1.024 4.307-1.175 18.070-10.842 30.268-9.246 11.716-21.925 17.649-37.587 17.649-53.579 0-56.29-43.49-56.411-48.459l-30.118 0.813c0.723 26.895 19.727 77.764 86.528 77.764 24.636 0 46.351-10.33 61.229-29.063z" />
<glyph unicode="&#xe680;" d="M421.647-1.882h-90.353v180.706h-150.588v-180.706h-90.353v271.059h-30.117v-301.176h391.529v301.176h-30.118v-271.059zM210.823-1.882v150.588h90.353v-150.588h-90.353zM505.856 285.048l-17.829-24.305-232.026 170.466-232.026-170.406-17.829 24.275 249.856 183.476 249.856-183.507z" />
<glyph unicode="&#xe681;" d="M468.028 464.941l-38.55-433.062-174.080-48.82-172.875 48.82-38.55 433.062h424.057zM389.12 376.425h-266.24l14.155-160.828h184.35l-6.686-68.638-59.302-16.022-59.030 15.993-3.916 42.135h-52.676l6.626-83.697 109.026-30.118h1.175v0.301l108.152 29.817 15.059 163.84h-193.988l-4.518 54.513h202.993l4.819 52.706z" />
<glyph unicode="&#xe682;" d="M271.059 359.529h169.412l-108.695 120.471h-211.305v-120.471h120.471v-112.128h-33.882v-279.401h97.882v279.401h-33.882v112.128zM150.588 449.882h167.786l54.363-60.236h-222.148v60.236zM274.824-1.882h-37.647v219.166h37.647v-219.166z" />
<glyph unicode="&#xe683;" d="M0 389.647v-361.412h512v361.412h-512zM481.882 58.353h-451.764v301.176h451.764v-301.176zM77.162 73.080l-30.117 0.663c0.994 43.068 42.105 79.872 99.659 90.865v9.819c-7.469 7.8-12.8 18.372-16.414 27.798-4.879 3.493-9.096 8.854-12.017 15.541-5.572 12.348-4.608 24.726 1.897 32.166-0.121 2.228-0.18 4.428-0.18 6.536l-0.060 5.541c-0.18 16.173-0.482 42.767 27.98 47.707 5.843 10.21 14.547 18.884 35.508 19.607 33.822 1.054 57.706-11.385 65.807-34.666 2.74-7.981 0.18-14.607-1.686-19.426-1.777-4.578-3.464-8.885-2.47-16.987 0.392-3.222 0.332-6.385 0.090-9.396 5.27-7.138 6.355-17.98 2.47-29.364-2.861-8.222-7.5-14.577-13.071-18.312-3.343-8.644-8.132-18.191-14.667-25.45v-11.354c57.495-11.294 97.22-47.315 98.214-90.594l-30.118-0.692c-0.692 30.75-36.442 57.464-85.022 63.518l-13.191 1.656v51.471l6.024 4.517c3.192 2.409 8.162 9.668 12.499 22.919l4.066 10.361 2.228 19.004c0.422 3.192 0.813 6.234 0.572 8.071-1.868 15.661 1.988 25.6 4.276 31.503 0.15 0.422 0.271 0.692 0.362 0.933-6.325 11.927-26.474 12.439-35.268 12.228-8.343-0.332-8.945-1.506-10.571-4.608-2.048-3.976-6.897-13.312-19.185-14.396-2.771-0.241-3.644-0.813-3.644-0.813-1.235-1.928-1.144-11.053-1.084-17.107l0.030-5.873c0-4.246 0.301-8.794 0.874-13.432l2.108-17.257 3.614-0.632 0.090-7.469c4.638-14.035 10.21-21.715 13.583-24.034l6.476-4.488v-50.808l-13.312-1.566c-48.549-5.692-85.654-33.069-86.347-63.699zM451.764 239.059h-150.588v30.118h150.588v-30.118zM421.647 178.824h-120.471v30.118h120.471v-30.118z" />
<glyph unicode="&#xe684;" d="M30.117 449.882v-451.764h451.764v451.764h-451.764zM451.764 28.236h-391.529v60.236h391.529v-60.236zM60.236 118.588v301.176h391.529v-301.176h-391.529zM427.761 173.854l-20.992-21.594-72.794 70.746-46.803-50.477-74.873 132.97-102.43-149.836-24.877 16.986 129.807 189.832 78.426-139.204 39.665 42.827 94.87-92.25z" />
<glyph unicode="&#xe685;" d="M256 68.081l-146.161 145.468 21.233 21.353 109.869-109.357v325.18h30.117v-325.18l109.839 109.327 21.233-21.353-146.131-145.438zM481.882 208.038v-194.861c0-8.313-6.747-15.059-15.059-15.059h-421.647c-8.313 0-15.059 6.747-15.059 15.059v195.012h-30.117v-195.012c0-24.908 20.269-45.176 45.176-45.176h421.647c24.908 0 45.176 20.269 45.176 45.176v194.861h-30.118z" />
<glyph unicode="&#xe686;" d="M512 239.059c0-66.439-54.031-120.47-120.471-120.47-36.051 0-69.572 16.022-92.582 43.731l-0.060-0.030-0.421 0.542c-0.332 0.421-0.783 0.692-1.144 1.144l0.12 0.091-109.447 134.988c-17.137 19.276-41.743 30.358-67.524 30.358-49.815 0-90.353-40.538-90.353-90.353s40.538-90.353 90.353-90.353c27.558 0 53.278 12.348 70.536 33.882l0.271-0.211 24.606 30.479 23.431-18.914-24.787-30.69-0.301 0.241c-22.98-28.522-57.133-44.906-93.756-44.906-66.439 0-120.471 54.031-120.471 120.471s54.031 120.471 120.471 120.471c33.732 0 65.837-14.366 88.636-39.183l0.241 0.18 1.265-1.566 111.375-137.337c17.257-20.872 42.436-32.918 69.541-32.918 49.815 0 90.353 40.538 90.353 90.353s-40.538 90.353-90.353 90.353c-25.48 0-49.694-10.902-66.861-29.786l-28.551-35.388-23.431 18.914 28.551 35.388-0.12 0.091c22.889 25.991 55.868 40.9 90.413 40.9 66.44 0 120.47-54.031 120.47-120.47z" />
<glyph unicode="&#xe687;" d="M325.271 50.041v-30.118h-138.541v30.118h54.212v223.804h-52.706v30.117h82.823v-253.922h54.212zM240.58 358.174c25.54 0 46.14 20.661 46.14 46.14 0 25.51-20.63 46.2-46.14 46.2-25.57 0-46.201-20.691-46.201-46.2 0-25.48 20.66-46.14 46.201-46.14z" />
<glyph unicode="&#xe688;" d="M256 480c-141.161 0-256-114.839-256-256s114.838-256 256-256 256 114.839 256 256-114.839 256-256 256zM256-1.882c-124.567 0-225.882 101.316-225.882 225.882s101.316 225.882 225.882 225.882 225.882-101.316 225.882-225.882-101.316-225.882-225.882-225.882zM271.059 107.475h29.485v-30.118h-89.088v30.118h29.485v133.12h-28.492v30.118h58.609v-163.238zM216.395 329.833c0 16.414 13.282 29.696 29.696 29.696s29.666-13.282 29.666-29.696c0-16.354-13.252-29.636-29.666-29.636s-29.696 13.282-29.696 29.636z" />
<glyph unicode="&#xe689;" d="M90.353 480v-195.735l164.623-286.087 166.671 286.058v195.764h-331.294zM255.126 58.353h0.060l-0.030-0.060-0.030 0.060zM256 299.294c-16.625 0-30.118 13.523-30.118 30.118s13.493 30.117 30.118 30.117 30.118-13.523 30.118-30.117-13.493-30.118-30.118-30.118zM391.529 292.367l-120.471-206.788v185.736c25.901 6.716 45.176 30.118 45.176 58.097 0 33.22-27.015 60.236-60.236 60.236s-60.236-27.015-60.236-60.236c0-27.979 19.275-51.38 45.177-58.097v-188.356l-120.471 209.378v157.546h271.059v-157.515z" />
<glyph unicode="&#xe68a;" d="M391.529 480h-271.059c-66.259 0-120.471-54.212-120.471-120.471v-271.059c0-66.259 54.212-120.47 120.471-120.47h271.059c66.259 0 120.471 54.212 120.471 120.471v271.059c0 66.259-54.212 120.471-120.471 120.471zM481.882 88.471c0-49.815-40.538-90.353-90.353-90.353h-271.059c-49.815 0-90.353 40.538-90.353 90.353v180.706h96.588c-8.614-18.372-13.764-38.641-13.764-60.236 0-78.878 64.18-143.059 143.059-143.059s143.059 64.18 143.059 143.059c0 21.595-5.15 41.863-13.764 60.236h96.587v-180.706zM368.941 208.941c0-62.284-50.658-112.941-112.941-112.941s-112.941 50.658-112.941 112.941 50.658 112.941 112.941 112.941 112.941-50.658 112.941-112.941zM365.99 299.294c-26.262 31.894-65.536 52.706-109.99 52.706s-83.727-20.812-109.99-52.706h-115.892v60.236c0 49.815 40.538 90.353 90.353 90.353h271.059c49.815 0 90.353-40.538 90.353-90.353v-60.236h-115.892zM435.32 398.020v-39.092c0-9.005-7.349-16.354-16.324-16.354h-41.201c-9.036 0.030-16.384 7.379-16.384 16.354v39.092c0 9.005 7.349 16.354 16.384 16.354h41.201c8.975 0 16.324-7.349 16.324-16.354z" />
<glyph unicode="&#xe68b;" d="M358.25 419.343l-171.399-391.108h23.974v-30.118h-90.353v30.118h33.461l171.399 391.108h-24.154v30.118h90.353v-30.118h-33.28z" />
<glyph unicode="&#xe68c;" d="M300.544 118.257l-47.375-47.676-9.397-9.397c-27.618-27.286-66.198-36.714-101.316-27.919-6.626-28.883-32.346-50.206-63.066-50.206-35.449 0-64.332 28.883-64.332 64.632 0 30.389 21.022 56.139 49.573 62.705-9.096 35.478 0.301 74.391 27.919 101.978l3.764 3.764 47.375-47.707-3.434-3.433c-15.692-15.36-15.36-40.448 0-56.109 15.36-15.39 40.478-15.39 55.838 0l9.427 9.397 47.375 47.707 50.508 50.176 47.375-47.707-50.236-50.206zM247.537 378.654l-47.676-47.646-3.795 3.764c-15.36 15.36-40.478 15.36-55.838 0-15.36-15.39-15.36-40.81 0-56.17l106.978-106.978-47.345-47.676-50.507 50.206-47.375 47.646-9.427 9.397c-28.883 28.551-37.647 69.662-26.684 106.375-28.852 6.264-50.176 31.985-50.176 62.735 0 35.78 28.883 64.632 64.332 64.632 32.316 0 58.669-23.522 63.669-53.971 34.816 8.162 72.794-1.596 100.081-28.522l3.764-3.795zM440.471 336.308c10.361-36.051 1.235-76.529-27.286-105.080l-3.764-3.764-47.375 47.707 3.764 3.734c15.36 15.39 15.36 40.508 0 55.868s-40.478 15.36-55.838 0l-107.309-107.34-47.676 47.707 50.507 50.206 47.676 47.646 9.096 9.427c28.551 28.522 69.331 37.647 105.743 26.956 4.367 31.413 31.353 55.567 64 55.567 35.449 0 64.332-28.883 64.332-64.632-0.030-32.618-24.486-59.603-55.868-64zM432.61-16.941c-31.353 0-57.404 22.257-63.368 51.772-36.382-11.264-78.125-2.53-106.978 26.353l-3.433 3.764 47.375 47.676 3.764-3.735c15.36-15.39 40.478-15.39 55.838 0 15.36 15.36 15.36 40.448 0 55.838l-9.397 9.427-97.913 97.852 47.676 47.707 97.882-97.913 9.125-9.397c27.286-27.286 37.014-65.897 28.22-101.014 31.382-4.397 55.537-31.082 55.537-63.668 0-35.78-28.853-64.662-64.332-64.662z" />
<glyph unicode="&#xe68d;" d="M496.941 152.712c0-51.531-42.587-93.425-94.81-93.425-1.868 0-3.524 0.241-5.18 0.241h-286.358c-52.706 3.072-95.533 43.309-95.533 95.533 0 35.057 19.064 65.656 47.526 82.341-1.867 6.114-2.831 12.469-2.831 19.305 0 35.99 29.425 65.174 66.108 65.174 15.059 0 29.184-5.18 40.478-13.643 23.070 47.526 72.012 80.474 129.175 80.474 79.3 0 143.3-63.308 143.3-141.191 0-2.831-0.241-5.662-0.241-8.463 34.123-14.125 58.368-47.525 58.368-86.347zM193.898 114.341c23.070 0 39.756 7.288 56.47 23.281-6.837 8.463-14.366 16.716-21.413 25.178-9.637-9.397-20.239-15.3-33.882-15.3-16.715 0-31.052 11.053-31.052 28.461 0 17.167 14.366 28.461 30.6 28.461 51.772 0 62.825-90.353 138.12-90.353 36.714 0 67.764 23.070 67.764 61.651 0 39.063-31.292 61.892-68.457 61.892-23.070 0-40.237-6.596-56.712-22.829 7.529-8.222 14.577-16.926 21.895-25.419 9.397 9.186 19.998 15.059 33.401 15.059 15.541 0 31.051-11.053 31.051-27.527 0-18.131-13.192-29.636-30.81-29.636-50.116 0-63.518 90.353-136.945 90.353-36.472 0-68.698-22.348-68.698-61.169-0.060-39.725 31.232-62.103 68.668-62.103z" />
<glyph unicode="&#xe68e;" d="M446.072 290.289l21.293 21.293-52.194 52.194 22.799 22.678-21.233 21.353-245.339-244.164c-14.577 10.12-32.226 16.113-51.291 16.113-49.815 0-90.353-40.538-90.353-90.353s40.538-90.353 90.353-90.353 90.353 40.538 90.353 90.353c0 19.908-6.686 38.189-17.619 53.127l158.54 157.756 52.344-52.345 21.293 21.293-52.315 52.284 21.113 21.022 52.254-52.254zM120.079 29.169c-33.22 0-60.236 27.015-60.236 60.236s27.016 60.236 60.236 60.236 60.236-27.015 60.236-60.236-27.016-60.236-60.236-60.236z" />
<glyph unicode="&#xe68f;" d="M391.529 449.882h-391.529v-331.294h391.529v331.294zM361.412 148.706h-331.294v271.059h331.294v-271.059zM512 329.412v-331.294h-391.529v91.286h30.118v-61.169h331.294v271.059h-60.717v30.118h90.835z" />
<glyph unicode="&#xe690;" d="M331.294 449.882h-331.294v-271.059h331.294v271.059zM301.176 208.941h-271.059v210.824h271.059v-210.824zM421.647 88.471h-331.294v59.663h30.118v-29.546h271.059v210.824h-29.937v30.117h60.055v-271.059zM512 269.177v-271.059h-331.294v59.663h30.118v-29.546h271.059v210.823h-29.937v30.117h60.054z" />
<glyph unicode="&#xe691;" d="M0 480v-512h512v512h-512zM30.117 299.294h271.059v-301.176h-271.059v301.176zM481.882-1.882h-150.588v301.176h150.588v-301.176zM30.117 329.412v120.47h451.764v-120.47h-451.764z" />
<glyph unicode="&#xe692;" d="M120.471 480v-271.059h391.529v271.059h-391.529zM481.882 239.059h-331.294v210.823h331.294v-210.823zM0 389.647h90.353v90.353h-90.353v-90.353zM30.117 449.882h30.117v-30.118h-30.117v30.118zM120.471 88.471h391.529v90.353h-391.529v-90.353zM150.588 148.706h331.294v-30.118h-331.294v30.118zM0 88.471h90.353v90.353h-90.353v-90.353zM30.117 148.706h30.117v-30.118h-30.117v30.118zM120.471-32h391.529v90.353h-391.529v-90.353zM150.588 28.236h331.294v-30.118h-331.294v30.118zM0-32h90.353v90.353h-90.353v-90.353zM30.117 28.236h30.117v-30.118h-30.117v30.118z" />
<glyph unicode="&#xe693;" d="M0 480v-512h512v512h-512zM481.882 449.882v-271.059h-451.764v271.059h451.764zM481.882 148.706v-60.236h-451.764v60.236h451.764zM30.117-1.882v60.236h451.764v-60.236h-451.764z" />
<glyph unicode="&#xe694;" d="M0 480v-90.353h512v90.353h-512zM481.882 419.764h-451.764v30.118h451.764v-30.118zM0 88.471h512v271.059h-512v-271.059zM30.117 329.412h451.764v-210.824h-451.764v210.824zM0-32h512v90.353h-512v-90.353zM30.117 28.236h451.764v-30.118h-451.764v30.118z" />
<glyph unicode="&#xe695;" d="M0-32h240.941v512h-240.941v-512zM30.117 449.882h180.706v-451.764h-180.706v451.764zM271.059 480v-512h240.941v512h-240.941zM481.882-1.882h-180.706v451.764h180.706v-451.764z" />
<glyph unicode="&#xe696;" d="M0 480h240.941v-512h-240.941v512zM271.059 480v-512h240.941v512h-240.941z" />
<glyph unicode="&#xe697;" d="M0-32h150.588v512h-150.588v-512zM30.117 449.882h90.353v-451.764h-90.353v451.764zM180.706-32h150.588v512h-150.588v-512zM210.823 449.882h90.353v-451.764h-90.353v451.764zM361.412 480v-512h150.588v512h-150.588zM481.882-1.882h-90.353v451.764h90.353v-451.764z" />
<glyph unicode="&#xe698;" d="M0 480h150.588v-512h-150.588v512zM180.706-32h150.588v512h-150.588v-512zM361.412 480v-512h150.588v512h-150.588z" />
<glyph unicode="&#xe699;" d="M30.117-32h90.353v512h-90.353v-512zM60.236 449.882h30.118v-451.764h-30.117v451.764zM150.588-32h90.353v512h-90.353v-512zM180.706 449.882h30.118v-451.764h-30.118v451.764zM271.059-32h90.353v512h-90.353v-512zM301.176 449.882h30.118v-451.764h-30.118v451.764zM391.529 480v-512h90.353v512h-90.353zM451.764-1.882h-30.118v451.764h30.118v-451.764z" />
<glyph unicode="&#xe69a;" d="M30.117 480h90.353v-512h-90.353v512zM150.588-32h90.353v512h-90.353v-512zM271.059-32h90.353v512h-90.353v-512zM391.529 480v-512h90.353v512h-90.353z" />
<glyph unicode="&#xe69b;" d="M451.764 269.177h-210.823v30.117h210.823v-30.117zM241.152 208.941h150.588v30.118h-150.588v-30.118zM512 389.647v-301.176h-512v301.176h512zM481.882 359.529h-451.764v-240.941h451.764v240.941zM210.823 299.294h-150.588v-60.235h150.588v60.235z" />
<glyph unicode="&#xe69c;" d="M271.059 269.177h-210.823v30.117h210.823v-30.117zM120.26 208.941h150.588v30.118h-150.588v-30.118zM512 389.647v-301.176h-512v301.176h512zM481.882 359.529h-451.764v-240.941h451.764v240.941zM451.764 299.294h-150.588v-60.235h150.588v60.235z" />
<glyph unicode="&#xe69d;" d="M421.647 239.059h-331.294v30.118h331.294v-30.118zM512 389.647v-331.294h-512v331.294h512zM481.882 359.529h-451.764v-271.059h451.764v271.059zM191.458 148.706h129.084v60.236h-129.084v-60.236z" />
<glyph unicode="&#xe69e;" d="M0 389.647v-331.294h512v331.294h-512zM481.882 88.471h-451.764v271.059h451.764v-271.059zM391.529 239.059h-301.176v30.118h301.176v-30.118zM240.941 148.706h-150.588v60.236h150.588v-60.236z" />
<glyph unicode="&#xe69f;" d="M0 389.647v-331.294h512v331.294h-512zM481.882 88.471h-451.764v271.059h451.764v-271.059zM421.647 239.059h-301.176v30.118h301.176v-30.118zM271.059 208.941h150.588v-60.236h-150.588v60.236z" />
<glyph unicode="&#xe6a0;" d="M0 269.177h210.823v210.823h-210.823v-210.823zM30.117 449.882h150.588v-150.588h-150.588v150.588zM271.059 480v-210.823h210.824v210.823h-210.823zM451.764 299.294h-150.588v150.588h150.588v-150.588zM0-1.882h210.823v210.824h-210.823v-210.823zM30.117 178.824h150.588v-150.588h-150.588v150.588zM271.059-1.882h210.824v210.824h-210.823v-210.823zM301.176 178.824h150.588v-150.588h-150.588v150.588z" />
<glyph unicode="&#xe6a1;" d="M0 480h210.823v-210.823h-210.823v210.823zM271.059 480v-210.823h210.824v210.823h-210.823zM0-1.882h210.823v210.824h-210.823v-210.823zM271.059-1.882h210.824v210.824h-210.823v-210.823z" />
<glyph unicode="&#xe6a2;" d="M0 419.764h90.353v-90.353h-90.353v90.353zM271.059 329.412h90.353v90.353h-90.353v-90.353zM0 88.471h90.353v90.353h-90.353v-90.353zM271.059 88.471h90.353v90.353h-90.353v-90.353zM120.471 389.647h120.471v30.118h-120.471v-30.118zM120.471 329.412h120.471v30.117h-120.471v-30.117zM391.529 419.764v-30.118h120.471v30.118h-120.471zM391.529 329.412h120.471v30.117h-120.471v-30.117zM210.823 299.324h-90.353v-30.118h90.353v30.118zM481.882 299.324h-90.353v-30.118h90.353v30.118zM120.471 148.706h120.471v30.118h-120.471v-30.118zM120.471 88.471h120.471v30.118h-120.471v-30.118zM391.529 148.706h120.471v30.118h-120.471v-30.118zM391.529 88.471h120.471v30.118h-120.471v-30.118zM120.471 28.265h90.353v30.118h-90.353v-30.118zM391.529 28.265h90.353v30.118h-90.353v-30.118z" />
<glyph unicode="&#xe6a3;" d="M0 329.412h150.588v150.588h-150.588v-150.588zM30.117 449.882h90.353v-90.353h-90.353v90.353zM180.706 329.412h150.588v150.588h-150.588v-150.588zM210.823 449.882h90.353v-90.353h-90.353v90.353zM361.412 480v-150.588h150.588v150.588h-150.588zM481.882 359.529h-90.353v90.353h90.353v-90.353zM0 148.706h150.588v150.588h-150.588v-150.588zM30.117 269.177h90.353v-90.353h-90.353v90.353zM180.706 148.706h150.588v150.588h-150.588v-150.588zM210.823 269.177h90.353v-90.353h-90.353v90.353zM361.412 148.706h150.588v150.588h-150.588v-150.588zM391.529 269.177h90.353v-90.353h-90.353v90.353zM0-32h150.588v150.588h-150.588v-150.588zM30.117 88.471h90.353v-90.353h-90.353v90.353zM180.706-32h150.588v150.588h-150.588v-150.588zM210.823 88.471h90.353v-90.353h-90.353v90.353zM361.412-32h150.588v150.588h-150.588v-150.588zM391.529 88.471h90.353v-90.353h-90.353v90.353z" />
<glyph unicode="&#xe6a4;" d="M0 480h150.588v-150.588h-150.588v150.588zM180.706 329.412h150.588v150.588h-150.588v-150.588zM361.412 480v-150.588h150.588v150.588h-150.588zM0 148.706h150.588v150.588h-150.588v-150.588zM180.706 148.706h150.588v150.588h-150.588v-150.588zM361.412 148.706h150.588v150.588h-150.588v-150.588zM0-32h150.588v150.588h-150.588v-150.588zM180.706-32h150.588v150.588h-150.588v-150.588zM361.412-32h150.588v150.588h-150.588v-150.588z" />
<glyph unicode="&#xe6a5;" d="M30.117 359.529h90.353v90.353h-90.353v-90.353zM60.236 419.764h30.118v-30.118h-30.117v30.118zM150.588 359.529h90.353v90.353h-90.353v-90.353zM180.706 419.764h30.118v-30.118h-30.118v30.118zM271.059 359.529h90.353v90.353h-90.353v-90.353zM301.176 419.764h30.118v-30.118h-30.118v30.118zM391.529 449.882v-90.353h90.353v90.353h-90.353zM451.764 389.647h-30.118v30.118h30.118v-30.118zM30.117 239.059h90.353v90.353h-90.353v-90.353zM60.236 299.294h30.118v-30.117h-30.117v30.117zM150.588 239.059h90.353v90.353h-90.353v-90.353zM180.706 299.294h30.118v-30.117h-30.118v30.117zM271.059 239.059h90.353v90.353h-90.353v-90.353zM301.176 299.294h30.118v-30.117h-30.118v30.117zM391.529 239.059h90.353v90.353h-90.353v-90.353zM421.647 299.294h30.118v-30.117h-30.118v30.117zM30.117 118.588h90.353v90.353h-90.353v-90.353zM60.236 178.824h30.118v-30.118h-30.117v30.118zM150.588 118.588h90.353v90.353h-90.353v-90.353zM180.706 178.824h30.118v-30.118h-30.118v30.118zM271.059 118.588h90.353v90.353h-90.353v-90.353zM301.176 178.824h30.118v-30.118h-30.118v30.118zM391.529 118.588h90.353v90.353h-90.353v-90.353zM421.647 178.824h30.118v-30.118h-30.118v30.118zM30.117-1.882h90.353v90.353h-90.353v-90.353zM60.236 58.353h30.118v-30.118h-30.117v30.118zM150.588-1.882h90.353v90.353h-90.353v-90.353zM180.706 58.353h30.118v-30.118h-30.118v30.118zM271.059-1.882h90.353v90.353h-90.353v-90.353zM301.176 58.353h30.118v-30.118h-30.118v30.118zM391.529-1.882h90.353v90.353h-90.353v-90.353zM421.647 58.353h30.118v-30.118h-30.118v30.118z" />
<glyph unicode="&#xe6a6;" d="M30.117 449.882h90.353v-90.353h-90.353v90.353zM150.588 359.529h90.353v90.353h-90.353v-90.353zM271.059 359.529h90.353v90.353h-90.353v-90.353zM391.529 449.882v-90.353h90.353v90.353h-90.353zM30.117 239.059h90.353v90.353h-90.353v-90.353zM150.588 239.059h90.353v90.353h-90.353v-90.353zM271.059 239.059h90.353v90.353h-90.353v-90.353zM391.529 239.059h90.353v90.353h-90.353v-90.353zM30.117 118.588h90.353v90.353h-90.353v-90.353zM150.588 118.588h90.353v90.353h-90.353v-90.353zM271.059 118.588h90.353v90.353h-90.353v-90.353zM391.529 118.588h90.353v90.353h-90.353v-90.353zM30.117-1.882h90.353v90.353h-90.353v-90.353zM150.588-1.882h90.353v90.353h-90.353v-90.353zM271.059-1.882h90.353v90.353h-90.353v-90.353zM391.529-1.882h90.353v90.353h-90.353v-90.353z" />
<glyph unicode="&#xe6a7;" d="M512 239.059v-30.117h-512v30.118h512z" />
<glyph unicode="&#xe6a8;" d="M496.851 329.412h-75.204v30.117h75.204v-30.117zM466.793 239.179h-45.147v-30.117h45.147v30.118zM421.767 299.355v-30.118h90.233v30.118h-90.233zM421.647 148.916h90.233v30.118h-90.233v-30.118zM421.647 88.471h75.204v30.118h-75.204v-30.118zM0 359.529h391.529v-271.059h-391.529v271.059zM30.117 118.588h331.294v210.824h-331.294v-210.824z" />
<glyph unicode="&#xe6a9;" d="M421.647 329.412h-421.647v60.236h421.647v-60.236zM0 299.294v-30.117h512v30.117h-512zM421.647 178.824h-421.647v-60.236h421.647v60.236zM0 58.353h512v30.118h-512v-30.118z" />
<glyph unicode="&#xe6aa;" d="M451.764 359.529h-271.059v30.118h271.059v-30.118zM180.706 329.412v-30.118h331.294v30.118h-331.294zM0 419.764h150.588v-150.588h-150.588v150.588zM30.117 299.294h90.353v90.353h-90.353v-90.353zM451.764 178.824h-271.059v-30.118h271.059v30.118zM180.706 88.471h331.294v30.118h-331.294v-30.118zM0 208.941h150.588v-150.588h-150.588v150.588zM30.117 88.471h90.353v90.353h-90.353v-90.353z" />
<glyph unicode="&#xe6ab;" d="M451.764 329.412h-271.059v30.117h271.059v-30.117zM180.706 299.294v-30.117h331.294v30.117h-331.294zM0 239.059h150.588v150.588h-150.588v-150.588zM451.764 148.706h-271.059v-30.118h271.059v30.118zM180.706 58.353h331.294v30.118h-331.294v-30.118zM0 28.236h150.588v150.588h-150.588v-150.588z" />
<glyph unicode="&#xe6ac;" d="M30.117 359.529v-180.706h451.764v180.706h-451.764zM451.764 208.941h-391.529v120.471h391.529v-120.471zM421.647 148.706v-30.118h-331.294v30.118h331.294zM60.236 88.471h391.529v-30.118h-391.529v30.118z" />
<glyph unicode="&#xe6ad;" d="M30.117 88.471h451.764v-30.118h-451.764v30.118zM120.471-1.671h271.059v30.118h-271.059v-30.118zM512 449.882v-331.294h-512v331.294h512zM481.882 419.764h-451.764v-271.059h451.764v271.059z" />
<glyph unicode="&#xe6ae;" d="M301.176 359.529h175.465v-30.117h-175.466v30.117zM301.176 239.179h105.322v-30.117h-105.322v30.118zM301.447 299.355h210.553v-30.118h-210.553v30.118zM301.176 179.034h210.553v-30.118h-210.553v30.118zM301.176 118.588h175.465v-30.118h-175.466v30.118zM0 88.471h271.059v271.059h-271.059v-271.059zM30.117 329.412h210.823v-210.824h-210.823v210.824z" />
<glyph unicode="&#xe6af;" d="M0 88.471h451.764v-30.118h-451.764v30.118zM0-1.671h301.176v30.118h-301.176v-30.118zM512 449.882v-331.294h-512v331.294h512zM481.882 419.764h-451.764v-271.059h451.764v271.059z" />
<glyph unicode="&#xe6b0;" d="M451.764 118.588h-391.529v30.118h391.529v-30.118zM361.412 88.682h-301.176v-30.118h301.176v30.118zM512 449.882v-451.764h-512v451.764h512zM481.882 419.764h-451.764v-391.529h451.764v391.529z" />
<glyph unicode="&#xe6b1;" d="M0 419.764v-361.412h512v361.412h-512zM30.117 178.522v211.125h451.764v-211.125h-451.764z" />
<glyph unicode="&#xe6b2;" d="M361.412 208.941h-301.176v30.118h301.176v-30.118zM361.412 178.824h-301.176v-30.118h301.176v30.118zM512 449.882v-451.764h-512v451.764h512zM481.882 419.764h-451.764v-391.529h451.764v391.529z" />
<glyph unicode="&#xe6b3;" d="M240.941 359.529v-271.059h271.059v271.059h-271.059zM481.882 118.588h-210.824v210.824h210.823v-210.824zM35.358 359.529h175.465v-30.117h-175.465v30.117zM105.502 239.179h105.322v-30.117h-105.322v30.118zM210.553 269.236h-210.553v30.118h210.553v-30.118zM0.271 179.034h210.553v-30.118h-210.553v30.118zM35.358 118.588h175.465v-30.118h-175.465v30.118z" />
<glyph unicode="&#xe6b4;" d="M60.236 88.471h451.764v-30.118h-451.764v30.118zM210.823-1.671h301.177v30.118h-301.176v-30.118zM512 449.882v-331.294h-512v331.294h512zM481.882 419.764h-451.764v-271.059h451.764v271.059z" />
<glyph unicode="&#xe6b5;" d="M0 269.177v-90.353h391.529v90.353h-391.529zM240.941 239.059v-30.117h-90.353v30.118h90.353zM30.117 239.059h90.353v-30.117h-90.353v30.118zM361.412 208.941h-90.353v30.118h90.353v-30.118z" />
<glyph unicode="&#xe6b6;" d="M0 269.177v-90.353h512v90.353h-512zM271.059 239.059h90.353v-30.117h-90.353v30.118zM240.941 208.941h-90.353v30.118h90.353v-30.118zM30.117 239.059h90.353v-30.117h-90.353v30.118zM481.882 208.941h-90.353v30.118h90.353v-30.118z" />
<glyph unicode="&#xe6b7;" d="M0 178.824h150.588v90.353h-150.588v-90.353zM30.117 239.059h90.353v-30.117h-90.353v30.118zM180.706 178.824h150.588v90.353h-150.588v-90.353zM210.823 239.059h90.353v-30.117h-90.353v30.118zM361.412 269.177v-90.353h150.588v90.353h-150.588zM481.882 208.941h-90.353v30.118h90.353v-30.118z" />
<glyph unicode="&#xe6b8;" d="M90.353 449.882v-90.353h331.294v90.353h-331.294zM391.529 389.647h-271.059v30.118h271.059v-30.118zM90.353 239.059h331.294v90.353h-331.294v-90.353zM120.471 299.294h271.059v-30.117h-271.059v30.117zM90.353 118.678h331.294v90.353h-331.294v-90.353zM120.471 178.914h271.059v-30.118h-271.059v30.118zM90.353-1.792h331.294v90.353h-331.294v-90.353zM120.471 58.443h271.059v-30.118h-271.059v30.118z" />
<glyph unicode="&#xe6b9;" d="M0.632 449.521v-451.764h512v451.764h-512zM245.067 223.729l-214.317-186.639v373.82l214.317-187.181zM43.941 419.404h425.803l-213.203-185.675-212.601 185.675zM256.512 213.73l212.811-185.856h-426.225l213.413 185.856zM267.987 223.729l214.528 186.85v-374.212l-214.528 187.362z" />
</font>
</defs>
</svg>
